  0
SECTION
  2
HEADER
  9
$ACADVER
  1
AC1015
  9
$ACADMAINTVER
 70
     6
  9
$DWGCODEPAGE
  3
ANSI_1252
  9
$INSBASE
 10
0.0
 20
0.0
 30
0.0
  9
$EXTMIN
 10
0.0
 20
0.0
 30
0.0
  9
$EXTMAX
 10
297.0000000000002
 20
210.0000000000001
 30
0.0
  9
$LIMMIN
 10
0.0
 20
0.0
  9
$LIMMAX
 10
12.0
 20
9.0
  9
$ORTHOMODE
 70
     0
  9
$REGENMODE
 70
     1
  9
$FILLMODE
 70
     1
  9
$QTEXTMODE
 70
     0
  9
$MIRRTEXT
 70
     1
  9
$LTSCALE
 40
1.0
  9
$ATTMODE
 70
     1
  9
$TEXTSIZE
 40
0.2
  9
$TRACEWID
 40
0.05
  9
$TEXTSTYLE
  7
Standard
  9
$CLAYER
  8
0
  9
$CELTYPE
  6
ByLayer
  9
$CECOLOR
 62
   256
  9
$CELTSCALE
 40
1.0
  9
$DISPSILH
 70
     0
  9
$DIMSCALE
 40
1.0
  9
$DIMASZ
 40
0.18
  9
$DIMEXO
 40
0.0625
  9
$DIMDLI
 40
0.38
  9
$DIMRND
 40
0.0
  9
$DIMDLE
 40
0.0
  9
$DIMEXE
 40
0.18
  9
$DIMTP
 40
0.0
  9
$DIMTM
 40
0.0
  9
$DIMTXT
 40
0.18
  9
$DIMCEN
 40
0.09
  9
$DIMTSZ
 40
0.0
  9
$DIMTOL
 70
     0
  9
$DIMLIM
 70
     0
  9
$DIMTIH
 70
     1
  9
$DIMTOH
 70
     1
  9
$DIMSE1
 70
     0
  9
$DIMSE2
 70
     0
  9
$DIMTAD
 70
     0
  9
$DIMZIN
 70
     0
  9
$DIMBLK
  1

  9
$DIMASO
 70
     1
  9
$DIMSHO
 70
     1
  9
$DIMPOST
  1

  9
$DIMAPOST
  1

  9
$DIMALT
 70
     0
  9
$DIMALTD
 70
     2
  9
$DIMALTF
 40
25.4
  9
$DIMLFAC
 40
1.0
  9
$DIMTOFL
 70
     0
  9
$DIMTVP
 40
0.0
  9
$DIMTIX
 70
     0
  9
$DIMSOXD
 70
     0
  9
$DIMSAH
 70
     0
  9
$DIMBLK1
  1

  9
$DIMBLK2
  1

  9
$DIMSTYLE
  2
Standard
  9
$DIMCLRD
 70
     0
  9
$DIMCLRE
 70
     0
  9
$DIMCLRT
 70
     0
  9
$DIMTFAC
 40
1.0
  9
$DIMGAP
 40
0.09
  9
$DIMJUST
 70
     0
  9
$DIMSD1
 70
     0
  9
$DIMSD2
 70
     0
  9
$DIMTOLJ
 70
     1
  9
$DIMTZIN
 70
     0
  9
$DIMALTZ
 70
     0
  9
$DIMALTTZ
 70
     0
  9
$DIMUPT
 70
     0
  9
$DIMDEC
 70
     4
  9
$DIMTDEC
 70
     4
  9
$DIMALTU
 70
     2
  9
$DIMALTTD
 70
     2
  9
$DIMTXSTY
  7
Standard
  9
$DIMAUNIT
 70
     0
  9
$DIMADEC
 70
     0
  9
$DIMALTRND
 40
0.0
  9
$DIMAZIN
 70
     0
  9
$DIMDSEP
 70
    46
  9
$DIMATFIT
 70
     3
  9
$DIMFRAC
 70
     0
  9
$DIMLDRBLK
  1

  9
$DIMLUNIT
 70
     2
  9
$DIMLWD
 70
    -2
  9
$DIMLWE
 70
    -2
  9
$DIMTMOVE
 70
     0
  9
$LUNITS
 70
     2
  9
$LUPREC
 70
     4
  9
$SKETCHINC
 40
0.1
  9
$FILLETRAD
 40
0.5
  9
$AUNITS
 70
     0
  9
$AUPREC
 70
     0
  9
$MENU
  1
.
  9
$ELEVATION
 40
0.0
  9
$PELEVATION
 40
0.0
  9
$THICKNESS
 40
0.0
  9
$LIMCHECK
 70
     0
  9
$CHAMFERA
 40
0.5
  9
$CHAMFERB
 40
0.5
  9
$CHAMFERC
 40
1.0
  9
$CHAMFERD
 40
0.0
  9
$SKPOLY
 70
     0
  9
$TDCREATE
 40
2456997.606548819
  9
$TDUCREATE
 40
2456997.564882153
  9
$TDUPDATE
 40
2456997.606548993
  9
$TDUUPDATE
 40
2456997.564882326
  9
$TDINDWG
 40
0.0000000116
  9
$TDUSRTIMER
 40
0.0000000116
  9
$USRTIMER
 70
     1
  9
$ANGBASE
 50
0.0
  9
$ANGDIR
 70
     0
  9
$PDMODE
 70
     0
  9
$PDSIZE
 40
0.0
  9
$PLINEWID
 40
0.0
  9
$SPLFRAME
 70
     0
  9
$SPLINETYPE
 70
     6
  9
$SPLINESEGS
 70
     8
  9
$HANDSEED
  5
363
  9
$SURFTAB1
 70
     6
  9
$SURFTAB2
 70
     6
  9
$SURFTYPE
 70
     6
  9
$SURFU
 70
     6
  9
$SURFV
 70
     6
  9
$UCSBASE
  2

  9
$UCSNAME
  2

  9
$UCSORG
 10
0.0
 20
0.0
 30
0.0
  9
$UCSXDIR
 10
1.0
 20
0.0
 30
0.0
  9
$UCSYDIR
 10
0.0
 20
1.0
 30
0.0
  9
$UCSORTHOREF
  2

  9
$UCSORTHOVIEW
 70
     0
  9
$UCSORGTOP
 10
0.0
 20
0.0
 30
0.0
  9
$UCSORGBOTTOM
 10
0.0
 20
0.0
 30
0.0
  9
$UCSORGLEFT
 10
0.0
 20
0.0
 30
0.0
  9
$UCSORGRIGHT
 10
0.0
 20
0.0
 30
0.0
  9
$UCSORGFRONT
 10
0.0
 20
0.0
 30
0.0
  9
$UCSORGBACK
 10
0.0
 20
0.0
 30
0.0
  9
$PUCSBASE
  2

  9
$PUCSNAME
  2

  9
$PUCSORG
 10
0.0
 20
0.0
 30
0.0
  9
$PUCSXDIR
 10
1.0
 20
0.0
 30
0.0
  9
$PUCSYDIR
 10
0.0
 20
1.0
 30
0.0
  9
$PUCSORTHOREF
  2

  9
$PUCSORTHOVIEW
 70
     0
  9
$PUCSORGTOP
 10
0.0
 20
0.0
 30
0.0
  9
$PUCSORGBOTTOM
 10
0.0
 20
0.0
 30
0.0
  9
$PUCSORGLEFT
 10
0.0
 20
0.0
 30
0.0
  9
$PUCSORGRIGHT
 10
0.0
 20
0.0
 30
0.0
  9
$PUCSORGFRONT
 10
0.0
 20
0.0
 30
0.0
  9
$PUCSORGBACK
 10
0.0
 20
0.0
 30
0.0
  9
$USERI1
 70
     0
  9
$USERI2
 70
     0
  9
$USERI3
 70
     0
  9
$USERI4
 70
     0
  9
$USERI5
 70
     0
  9
$USERR1
 40
18.1
  9
$USERR2
 40
0.0
  9
$USERR3
 40
0.0
  9
$USERR4
 40
0.0
  9
$USERR5
 40
0.0
  9
$WORLDVIEW
 70
     1
  9
$SHADEDGE
 70
     3
  9
$SHADEDIF
 70
    70
  9
$TILEMODE
 70
     1
  9
$MAXACTVP
 70
    64
  9
$PINSBASE
 10
0.0
 20
0.0
 30
0.0
  9
$PLIMCHECK
 70
     0
  9
$PEXTMIN
 10
1.00000000000000E+20
 20
1.00000000000000E+20
 30
1.00000000000000E+20
  9
$PEXTMAX
 10
-1.00000000000000E+20
 20
-1.00000000000000E+20
 30
-1.00000000000000E+20
  9
$PLIMMIN
 10
0.0
 20
0.0
  9
$PLIMMAX
 10
12.0
 20
9.0
  9
$UNITMODE
 70
     0
  9
$VISRETAIN
 70
     1
  9
$PLINEGEN
 70
     0
  9
$PSLTSCALE
 70
     1
  9
$TREEDEPTH
 70
  3020
  9
$CMLSTYLE
  2
Standard
  9
$CMLJUST
 70
     0
  9
$CMLSCALE
 40
1.0
  9
$PROXYGRAPHICS
 70
     1
  9
$MEASUREMENT
 70
     1
  9
$CELWEIGHT
370
    -1
  9
$ENDCAPS
280
     0
  9
$JOINSTYLE
280
     0
  9
$LWDISPLAY
290
     0
  9
$INSUNITS
 70
     4
  9
$HYPERLINKBASE
  1

  9
$STYLESHEET
  1

  9
$XEDIT
290
     1
  9
$CEPSNTYPE
380
     0
  9
$PSTYLEMODE
290
     1
  9
$FINGERPRINTGUID
  2
{7FBFA11D-0294-41F6-880F-6F1A7EDE62F7}
  9
$VERSIONGUID
  2
{FAEB1C32-E019-11D5-929B-00C0DF256EC4}
  9
$EXTNAMES
290
     1
  9
$PSVPSCALE
 40
0.0
  9
$OLESTARTUP
290
     0
  0
ENDSEC
  0
SECTION
  2
CLASSES
  0
CLASS
  1
ACDBDICTIONARYWDFLT
  2
AcDbDictionaryWithDefault
  3
ObjectDBX Classes
 90
        0
280
     0
281
     0
  0
CLASS
  1
VISUALSTYLE
  2
AcDbVisualStyle
  3
ObjectDBX Classes
 90
     4095
280
     0
281
     0
  0
CLASS
  1
MATERIAL
  2
AcDbMaterial
  3
ObjectDBX Classes
 90
     1153
280
     0
281
     0
  0
CLASS
  1
DICTIONARYVAR
  2
AcDbDictionaryVar
  3
ObjectDBX Classes
 90
        0
280
     0
281
     0
  0
CLASS
  1
ACDBPLACEHOLDER
  2
AcDbPlaceHolder
  3
ObjectDBX Classes
 90
        0
280
     0
281
     0
  0
CLASS
  1
LAYOUT
  2
AcDbLayout
  3
ObjectDBX Classes
 90
        0
280
     0
281
     0
  0
ENDSEC
  0
SECTION
  2
TABLES
  0
TABLE
  2
VPORT
  5
8
330
0
100
AcDbSymbolTable
 70
     1
  0
VPORT
  5
29
330
8
100
AcDbSymbolTableRecord
100
AcDbViewportTableRecord
  2
*Active
 70
     0
 10
0.0
 20
0.0
 11
1.0
 21
1.0
 12
148.5000000000001
 22
105.0000000000001
 13
0.0
 23
0.0
 14
0.5
 24
0.5
 15
0.5
 25
0.5
 16
0.0
 26
0.0
 36
1.0
 17
0.0
 27
0.0
 37
0.0
 40
231.0000000000001
 41
1.60267857142857
 42
50.0
 43
0.0
 44
0.0
 50
0.0
 51
0.0
 71
     0
 72
   100
 73
     1
 74
     3
 75
     0
 76
     0
 77
     0
 78
     0
281
     0
 65
     1
110
0.0
120
0.0
130
0.0
111
1.0
121
0.0
131
0.0
112
0.0
122
1.0
132
0.0
 79
     0
146
0.0
  0
ENDTAB
  0
TABLE
  2
LTYPE
  5
5
330
0
100
AcDbSymbolTable
 70
     8
  0
LTYPE
  5
14
330
5
100
AcDbSymbolTableRecord
100
AcDbLinetypeTableRecord
  2
ByBlock
 70
     0
  3

 72
    65
 73
     0
 40
0.0
  0
LTYPE
  5
15
330
5
100
AcDbSymbolTableRecord
100
AcDbLinetypeTableRecord
  2
ByLayer
 70
     0
  3

 72
    65
 73
     0
 40
0.0
  0
LTYPE
  5
16
330
5
100
AcDbSymbolTableRecord
100
AcDbLinetypeTableRecord
  2
Continuous
 70
     0
  3
Solid line
 72
    65
 73
     0
 40
0.0
  0
LTYPE
  5
3F
330
5
100
AcDbSymbolTableRecord
100
AcDbLinetypeTableRecord
  2
DASHED
 70
     0
  3
Dashed
 72
    65
 73
     2
 40
15.0
 49
7.0
 74
     0
 49
-8.0
 74
     0
  0
LTYPE
  5
40
330
5
100
AcDbSymbolTableRecord
100
AcDbLinetypeTableRecord
  2
DOTTED
 70
     0
  3
Dotted
 72
    65
 73
     2
 40
1.0
 49
0.0
 74
     0
 49
-1.0
 74
     0
  0
LTYPE
  5
41
330
5
100
AcDbSymbolTableRecord
100
AcDbLinetypeTableRecord
  2
DOT_CENTER
 70
     0
  3
Dot_Center
 72
    65
 73
     4
 40
14.0
 49
12.0
 74
     0
 49
-1.0
 74
     0
 49
0.0
 74
     0
 49
-1.0
 74
     0
  0
LTYPE
  5
42
330
5
100
AcDbSymbolTableRecord
100
AcDbLinetypeTableRecord
  2
LONG_DASHED
 70
     0
  3
Long_Dashed
 72
    65
 73
     2
 40
15.0
 49
10.0
 74
     0
 49
-5.0
 74
     0
  0
LTYPE
  5
43
330
5
100
AcDbSymbolTableRecord
100
AcDbLinetypeTableRecord
  2
DASH_CENTER
 70
     0
  3
Dash_Center
 72
    65
 73
     4
 40
14.0
 49
11.0
 74
     0
 49
-1.0
 74
     0
 49
1.0
 74
     0
 49
-1.0
 74
     0
  0
LTYPE
  5
44
330
5
100
AcDbSymbolTableRecord
100
AcDbLinetypeTableRecord
  2
PHANTOM
 70
     0
  3
Phantom
 72
    65
 73
     6
 40
13.0
 49
10.0
 74
     0
 49
-1.0
 74
     0
 49
0.0
 74
     0
 49
-1.0
 74
     0
 49
0.0
 74
     0
 49
-1.0
 74
     0
  0
LTYPE
  5
45
330
5
100
AcDbSymbolTableRecord
100
AcDbLinetypeTableRecord
  2
CENTER_DASH_DASH
 70
     0
  3
Center_Dash_Dash
 72
    65
 73
     6
 40
14.0
 49
9.0
 74
     0
 49
-1.0
 74
     0
 49
1.0
 74
     0
 49
-1.0
 74
     0
 49
1.0
 74
     0
 49
-1.0
 74
     0
  0
ENDTAB
  0
TABLE
  2
LAYER
  5
2
330
0
100
AcDbSymbolTable
 70
     8
  0
LAYER
  5
10
330
2
100
AcDbSymbolTableRecord
100
AcDbLayerTableRecord
  2
0
 70
     0
 62
     7
  6
Continuous
370
    -3
390
F
  0
LAYER
  5
46
330
2
100
AcDbSymbolTableRecord
100
AcDbLayerTableRecord
  2
1
 70
     0
 62
     7
  6
Continuous
370
    -3
390
F
  0
LAYER
  5
47
330
2
100
AcDbSymbolTableRecord
100
AcDbLayerTableRecord
  2
Bemaßungen_TC_020513_DIN_
 70
     0
 62
     7
  6
Continuous
370
    -3
390
F
  0
LAYER
  5
48
330
2
100
AcDbSymbolTableRecord
100
AcDbLayerTableRecord
  2
Mittellinie_TC_020513_DIN_
 70
     0
 62
     7
  6
Continuous
370
    -3
390
F
  0
LAYER
  5
49
330
2
100
AcDbSymbolTableRecord
100
AcDbLayerTableRecord
  2
Mittelpunktmarkierung_TC_020513_DIN_
 70
     0
 62
     7
  6
Continuous
370
    -3
390
F
  0
LAYER
  5
4A
330
2
100
AcDbSymbolTableRecord
100
AcDbLayerTableRecord
  2
Sichtbare_Kanten_TC_020513_DIN_
 70
     0
 62
     7
  6
Continuous
370
    -3
390
F
  0
LAYER
  5
4B
330
2
100
AcDbSymbolTableRecord
100
AcDbLayerTableRecord
  2
Skizziergeometrie_TC_020513_DIN_
 70
     0
 62
     7
  6
Continuous
370
    -3
390
F
  0
LAYER
  5
4C
330
2
100
AcDbSymbolTableRecord
100
AcDbLayerTableRecord
  2
Symbole_TC_020513_DIN_
 70
     0
 62
     7
  6
Continuous
370
    -3
390
F
  0
ENDTAB
  0
TABLE
  2
STYLE
  5
3
330
0
100
AcDbSymbolTable
 70
     4
  0
STYLE
  5
11
330
3
100
AcDbSymbolTableRecord
100
AcDbTextStyleTableRecord
  2
Standard
 70
     0
 40
0.0
 41
1.0
 50
0.0
 71
     0
 42
0.2
  3
txt
  4

  0
STYLE
  5
A1
330
3
100
AcDbSymbolTableRecord
100
AcDbTextStyleTableRecord
  2
CONVERTER_11
 70
     0
 40
0.0
 41
1.2
 50
0.0
 71
     0
 42
0.2
  3
ARIAL.TTF
  4

  0
STYLE
  5
A6
330
3
100
AcDbSymbolTableRecord
100
AcDbTextStyleTableRecord
  2
CONVERTER_12
 70
     0
 40
0.0
 41
1.38
 50
0.0
 71
     0
 42
0.2
  3
ARIAL.TTF
  4

  0
STYLE
  5
2AE
330
3
100
AcDbSymbolTableRecord
100
AcDbTextStyleTableRecord
  2
CONVERTER_13
 70
     0
 40
0.0
 41
0.95
 50
0.0
 71
     0
 42
0.2
  3
simplex.shx
  4

  0
ENDTAB
  0
TABLE
  2
VIEW
  5
6
330
0
100
AcDbSymbolTable
 70
     0
  0
ENDTAB
  0
TABLE
  2
UCS
  5
7
330
0
100
AcDbSymbolTable
 70
     0
  0
ENDTAB
  0
TABLE
  2
APPID
  5
9
330
0
100
AcDbSymbolTable
 70
     1
  0
APPID
  5
12
330
9
100
AcDbSymbolTableRecord
100
AcDbRegAppTableRecord
  2
ACAD
 70
     0
  0
ENDTAB
  0
TABLE
  2
DIMSTYLE
  5
A
330
0
100
AcDbSymbolTable
 70
    13
100
AcDbDimStyleTable
  0
DIMSTYLE
105
27
330
A
100
AcDbSymbolTableRecord
100
AcDbDimStyleTableRecord
  2
Standard
 70
     0
178
     0
340
11
  0
DIMSTYLE
105
2B2
102
{ACAD_REACTORS
330
2B3
102
}
330
A
100
AcDbSymbolTableRecord
100
AcDbDimStyleTableRecord
  2
ME10_DIM_10
 70
     0
 41
3.0
 42
0.5
 44
1.0
 73
     0
 74
     0
 77
     1
 78
     8
140
3.0
147
2.0
172
     1
173
     1
174
     1
175
     1
176
     2
177
     2
271
     2
178
     4
271
     2
340
2AE
  0
DIMSTYLE
105
2BD
102
{ACAD_REACTORS
330
2BE
102
}
330
A
100
AcDbSymbolTableRecord
100
AcDbDimStyleTableRecord
  2
ME10_DIM_11
 70
     0
 41
3.0
 42
0.5
 44
1.0
 73
     0
 74
     0
 77
     1
 78
     8
140
3.0
147
2.0
172
     1
173
     1
174
     1
175
     1
176
     2
177
     2
271
     2
178
     4
271
     2
340
2AE
  0
DIMSTYLE
105
2C8
102
{ACAD_REACTORS
330
2C9
102
}
330
A
100
AcDbSymbolTableRecord
100
AcDbDimStyleTableRecord
  2
ME10_DIM_12
 70
     0
 41
3.0
 42
0.5
 44
1.0
 73
     0
 74
     0
 77
     1
 78
     8
140
3.0
147
2.0
172
     1
173
     1
174
     1
175
     1
176
     2
177
     2
271
     2
178
     4
271
     2
340
2AE
  0
DIMSTYLE
105
2D3
102
{ACAD_REACTORS
330
2D4
102
}
330
A
100
AcDbSymbolTableRecord
100
AcDbDimStyleTableRecord
  2
ME10_DIM_13
 70
     0
 41
3.0
 42
0.5
 44
1.0
 73
     0
 74
     0
 77
     1
 78
     8
140
3.0
147
2.0
172
     1
173
     1
174
     1
175
     1
176
     2
177
     2
271
     2
178
     4
271
     2
340
2AE
  0
DIMSTYLE
105
2DE
102
{ACAD_REACTORS
330
2DF
102
}
330
A
100
AcDbSymbolTableRecord
100
AcDbDimStyleTableRecord
  2
ME10_DIM_14
 70
     0
 41
3.0
 42
0.5
 44
1.0
 73
     0
 74
     0
 77
     1
 78
     8
140
3.0
147
2.0
172
     1
173
     1
174
     1
175
     1
176
     2
177
     2
271
     2
178
     4
271
     2
340
2AE
  0
DIMSTYLE
105
2E9
102
{ACAD_REACTORS
330
2EA
102
}
330
A
100
AcDbSymbolTableRecord
100
AcDbDimStyleTableRecord
  2
ME10_DIM_15
 70
     0
 41
3.0
 42
0.5
 44
1.0
 73
     0
 74
     0
 77
     1
 78
     8
140
3.0
147
2.0
172
     1
173
     1
174
     1
175
     1
176
     2
177
     2
271
     2
178
     4
271
     2
340
2AE
  0
DIMSTYLE
105
2F6
102
{ACAD_REACTORS
330
2F7
102
}
330
A
100
AcDbSymbolTableRecord
100
AcDbDimStyleTableRecord
  2
ME10_DIM_16
 70
     0
 41
3.0
 42
0.5
 44
1.0
 73
     0
 74
     0
 77
     1
 78
     8
140
3.0
147
2.0
172
     1
173
     1
174
     1
175
     1
176
     2
177
     2
271
     2
178
     4
271
     2
340
2AE
  0
DIMSTYLE
105
301
102
{ACAD_REACTORS
330
302
102
}
330
A
100
AcDbSymbolTableRecord
100
AcDbDimStyleTableRecord
  2
ME10_DIM_17
 70
     0
 41
3.0
 42
0.5
 44
1.0
 73
     0
 74
     0
 77
     1
 78
     8
140
3.0
147
2.0
172
     1
173
     1
174
     1
175
     1
176
     2
177
     2
271
     2
178
     4
271
     2
340
2AE
  0
DIMSTYLE
105
30C
102
{ACAD_REACTORS
330
30D
102
}
330
A
100
AcDbSymbolTableRecord
100
AcDbDimStyleTableRecord
  2
ME10_DIM_18
 70
     0
 41
3.0
 42
0.5
 44
1.0
 73
     0
 74
     0
 77
     1
 78
     8
140
3.0
147
2.0
172
     1
173
     1
174
     1
175
     1
176
     2
177
     2
271
     2
178
     4
271
     2
340
2AE
  0
DIMSTYLE
105
317
102
{ACAD_REACTORS
330
318
102
}
330
A
100
AcDbSymbolTableRecord
100
AcDbDimStyleTableRecord
  2
ME10_DIM_19
 70
     0
 41
3.0
 42
0.5
 44
1.0
 73
     0
 74
     0
 77
     1
 78
     8
140
3.0
147
2.0
172
     1
173
     1
174
     1
175
     1
176
     2
177
     2
271
     2
178
     4
271
     2
340
2AE
  0
DIMSTYLE
105
322
102
{ACAD_REACTORS
330
323
102
}
330
A
100
AcDbSymbolTableRecord
100
AcDbDimStyleTableRecord
  2
ME10_DIM_20
 70
     0
 41
3.0
 42
0.5
 44
1.0
 73
     0
 74
     0
 77
     1
 78
     8
140
3.0
147
2.0
172
     1
173
     1
174
     1
175
     1
176
     2
177
     2
271
     2
178
     4
271
     2
340
2AE
  0
DIMSTYLE
105
32D
102
{ACAD_REACTORS
330
32E
102
}
330
A
100
AcDbSymbolTableRecord
100
AcDbDimStyleTableRecord
  2
ME10_DIM_21
 70
     0
 41
3.0
 42
0.5
 44
1.0
 73
     0
 74
     0
 77
     1
 78
     8
140
3.0
147
2.0
172
     1
173
     1
174
     1
175
     1
176
     2
177
     2
271
     2
178
     4
271
     2
340
2AE
  0
ENDTAB
  0
TABLE
  2
BLOCK_RECORD
  5
1
330
0
100
AcDbSymbolTable
 70
    16
  0
BLOCK_RECORD
  5
1F
330
1
100
AcDbSymbolTableRecord
100
AcDbBlockTableRecord
  2
*Model_Space
340
22
  0
BLOCK_RECORD
  5
1B
330
1
100
AcDbSymbolTableRecord
100
AcDbBlockTableRecord
  2
*Paper_Space
340
1E
  0
BLOCK_RECORD
  5
23
330
1
100
AcDbSymbolTableRecord
100
AcDbBlockTableRecord
  2
*Paper_Space0
340
26
  0
BLOCK_RECORD
  5
4D
330
1
100
AcDbSymbolTableRecord
100
AcDbBlockTableRecord
  2
_formato_A4
340
0
102
{BLKREFS
331
51
102
}
  0
BLOCK_RECORD
  5
50
330
1
100
AcDbSymbolTableRecord
100
AcDbBlockTableRecord
  2
A4_oriz
340
0
102
{BLKREFS
331
54
102
}
  0
BLOCK_RECORD
  5
2A8
330
1
100
AcDbSymbolTableRecord
100
AcDbBlockTableRecord
  2
*D3
340
0
  0
BLOCK_RECORD
  5
2B4
330
1
100
AcDbSymbolTableRecord
100
AcDbBlockTableRecord
  2
*D4
340
0
  0
BLOCK_RECORD
  5
2BF
330
1
100
AcDbSymbolTableRecord
100
AcDbBlockTableRecord
  2
*D5
340
0
  0
BLOCK_RECORD
  5
2CA
330
1
100
AcDbSymbolTableRecord
100
AcDbBlockTableRecord
  2
*D6
340
0
  0
BLOCK_RECORD
  5
2D5
330
1
100
AcDbSymbolTableRecord
100
AcDbBlockTableRecord
  2
*D7
340
0
  0
BLOCK_RECORD
  5
2E0
330
1
100
AcDbSymbolTableRecord
100
AcDbBlockTableRecord
  2
*D8
340
0
  0
BLOCK_RECORD
  5
2EB
330
1
100
AcDbSymbolTableRecord
100
AcDbBlockTableRecord
  2
*D9
340
0
  0
BLOCK_RECORD
  5
2F8
330
1
100
AcDbSymbolTableRecord
100
AcDbBlockTableRecord
  2
*D10
340
0
  0
BLOCK_RECORD
  5
303
330
1
100
AcDbSymbolTableRecord
100
AcDbBlockTableRecord
  2
*D11
340
0
  0
BLOCK_RECORD
  5
30E
330
1
100
AcDbSymbolTableRecord
100
AcDbBlockTableRecord
  2
*D12
340
0
  0
BLOCK_RECORD
  5
319
330
1
100
AcDbSymbolTableRecord
100
AcDbBlockTableRecord
  2
*D13
340
0
  0
BLOCK_RECORD
  5
324
330
1
100
AcDbSymbolTableRecord
100
AcDbBlockTableRecord
  2
*D14
340
0
  0
BLOCK_RECORD
  5
32F
330
1
100
AcDbSymbolTableRecord
100
AcDbBlockTableRecord
  2
*D15
340
0
102
{BLKREFS
331
337
102
}
  0
ENDTAB
  0
ENDSEC
  0
SECTION
  2
BLOCKS
  0
BLOCK
  5
20
330
1F
100
AcDbEntity
  8
0
100
AcDbBlockBegin
  2
*Model_Space
 70
     0
 10
0.0
 20
0.0
 30
0.0
  3
*Model_Space
  1

  0
ENDBLK
  5
21
330
1F
100
AcDbEntity
  8
0
100
AcDbBlockEnd
  0
BLOCK
  5
1C
330
1B
100
AcDbEntity
 67
     1
  8
0
100
AcDbBlockBegin
  2
*Paper_Space
 70
     0
 10
0.0
 20
0.0
 30
0.0
  3
*Paper_Space
  1

  0
ENDBLK
  5
1D
330
1B
100
AcDbEntity
 67
     1
  8
0
100
AcDbBlockEnd
  0
BLOCK
  5
24
330
23
100
AcDbEntity
  8
0
100
AcDbBlockBegin
  2
*Paper_Space0
 70
     0
 10
0.0
 20
0.0
 30
0.0
  3
*Paper_Space0
  1

  0
ENDBLK
  5
25
330
23
100
AcDbEntity
  8
0
100
AcDbBlockEnd
  0
BLOCK
  5
4E
330
4D
100
AcDbEntity
  8
0
100
AcDbBlockBegin
  2
_formato_A4
 70
     0
 10
0.0
 20
0.0
 30
0.0
  3
_formato_A4
  1

  0
LINE
  5
55
330
4D
100
AcDbEntity
  8
1
  6
Continuous
 62
     7
100
AcDbLine
 10
-189.0000000000001
 20
4.99999999999989
 30
0.0
 11
-189.0000000000001
 21
40.0
 31
0.0
  0
LINE
  5
56
330
4D
100
AcDbEntity
  8
1
  6
Continuous
 62
     7
100
AcDbLine
 10
-189.0000000000001
 20
20.0
 30
0.0
 11
-5.0
 21
20.0
 31
0.0
  0
LINE
  5
57
330
4D
100
AcDbEntity
  8
1
  6
Continuous
 62
     7
100
AcDbLine
 10
-292.0000000000003
 20
189.0
 30
0.0
 11
-292.0000000000003
 21
5.0
 31
0.0
  0
LINE
  5
58
330
4D
100
AcDbEntity
  8
1
  6
Continuous
 62
     7
100
AcDbLine
 10
-164.0
 20
35.0
 30
0.0
 11
-164.0
 21
40.0
 31
0.0
  0
LINE
  5
59
330
4D
100
AcDbEntity
  8
1
  6
Continuous
 62
     7
100
AcDbLine
 10
-182.0000000000001
 20
35.0
 30
0.0
 11
-182.0000000000001
 21
40.0
 31
0.0
  0
LINE
  5
5A
330
4D
100
AcDbEntity
  8
1
  6
Continuous
 62
     7
100
AcDbLine
 10
-189.0000000000001
 20
40.0
 30
0.0
 11
-5.0
 21
40.0
 31
0.0
  0
LINE
  5
5B
330
4D
100
AcDbEntity
  8
1
  6
Continuous
 62
     7
100
AcDbLine
 10
-164.0
 20
30.0
 30
0.0
 11
-164.0
 21
35.0
 31
0.0
  0
LINE
  5
5C
330
4D
100
AcDbEntity
  8
1
  6
Continuous
 62
     7
100
AcDbLine
 10
-182.0000000000001
 20
30.0
 30
0.0
 11
-182.0000000000001
 21
35.0
 31
0.0
  0
LINE
  5
5D
330
4D
100
AcDbEntity
  8
1
  6
Continuous
 62
     7
100
AcDbLine
 10
-189.0000000000001
 20
35.0
 30
0.0
 11
-5.0
 21
35.0
 31
0.0
  0
LINE
  5
5E
330
4D
100
AcDbEntity
  8
1
  6
Continuous
 62
     7
100
AcDbLine
 10
-164.0
 20
25.0
 30
0.0
 11
-164.0
 21
30.0
 31
0.0
  0
LINE
  5
5F
330
4D
100
AcDbEntity
  8
1
  6
Continuous
 62
     7
100
AcDbLine
 10
-182.0000000000001
 20
25.0
 30
0.0
 11
-182.0000000000001
 21
30.0
 31
0.0
  0
LINE
  5
60
330
4D
100
AcDbEntity
  8
1
  6
Continuous
 62
     7
100
AcDbLine
 10
-189.0000000000001
 20
30.0
 30
0.0
 11
-5.0
 21
30.0
 31
0.0
  0
LINE
  5
61
330
4D
100
AcDbEntity
  8
1
  6
Continuous
 62
     7
100
AcDbLine
 10
-164.0
 20
20.0
 30
0.0
 11
-164.0
 21
25.0
 31
0.0
  0
LINE
  5
62
330
4D
100
AcDbEntity
  8
1
  6
Continuous
 62
     7
100
AcDbLine
 10
-182.0000000000001
 20
20.0
 30
0.0
 11
-182.0000000000001
 21
25.0
 31
0.0
  0
LINE
  5
63
330
4D
100
AcDbEntity
  8
1
  6
Continuous
 62
     7
100
AcDbLine
 10
-189.0000000000001
 20
25.0
 30
0.0
 11
-5.0
 21
25.0
 31
0.0
  0
LINE
  5
64
102
{ACAD_REACTORS
330
AC
102
}
330
4D
100
AcDbEntity
  8
1
  6
Continuous
 62
     7
100
AcDbLine
 10
-14.15712516009421
 20
10.55800208038033
 30
0.0
 11
-15.49045849342753
 21
9.78877131114973
 31
0.0
  0
LINE
  5
65
102
{ACAD_REACTORS
330
AC
102
}
330
4D
100
AcDbEntity
  8
1
  6
Continuous
 62
     7
100
AcDbLine
 10
-15.32369931125732
 20
10.65463653264794
 30
0.0
 11
-14.4902734624207
 21
11.13545913774624
 31
0.0
  0
LINE
  5
66
102
{ACAD_REACTORS
330
AC
102
}
330
4D
100
AcDbEntity
  8
1
  6
Continuous
 62
     7
100
AcDbLine
 10
-15.32369931125732
 20
12.16666666666663
 30
0.0
 11
-15.32369931125732
 21
10.65463653264794
 31
0.0
  0
LINE
  5
67
102
{ACAD_REACTORS
330
AC
102
}
330
4D
100
AcDbEntity
  8
1
  6
Continuous
 62
     7
100
AcDbLine
 10
-14.32369931125732
 20
12.16666666666663
 30
0.0
 11
-15.32369931125732
 21
12.16666666666663
 31
0.0
  0
LINE
  5
68
102
{ACAD_REACTORS
330
AC
102
}
330
4D
100
AcDbEntity
  8
1
  6
Continuous
 62
     7
100
AcDbLine
 10
-15.32369931125732
 20
12.83333333333326
 30
0.0
 11
-14.32369931125732
 21
12.83333333333326
 31
0.0
  0
LINE
  5
69
102
{ACAD_REACTORS
330
AC
102
}
330
4D
100
AcDbEntity
  8
1
  6
Continuous
 62
     7
100
AcDbLine
 10
-15.32369931125732
 20
14.34536346735195
 30
0.0
 11
-15.32369931125732
 21
12.83333333333326
 31
0.0
  0
LINE
  5
6A
102
{ACAD_REACTORS
330
AC
102
}
330
4D
100
AcDbEntity
  8
1
  6
Continuous
 62
     7
100
AcDbLine
 10
-14.4902734624207
 20
13.86454086225376
 30
0.0
 11
-15.32369931125732
 21
14.34536346735195
 31
0.0
  0
LINE
  5
6B
102
{ACAD_REACTORS
330
AC
102
}
330
4D
100
AcDbEntity
  8
1
  6
Continuous
 62
     7
100
AcDbLine
 10
-15.49045849342753
 20
15.21122868885027
 30
0.0
 11
-14.15712516009421
 21
14.44199791961944
 31
0.0
  0
LINE
  5
6C
102
{ACAD_REACTORS
330
AD
102
}
330
4D
100
AcDbEntity
  8
1
  6
Continuous
 62
     7
100
AcDbLine
 10
-22.6570326445908
 20
10.84673060906323
 30
0.0
 11
-22.6570326445908
 21
14.15326939093666
 31
0.0
  0
LINE
  5
6D
102
{ACAD_REACTORS
330
AD
102
}
330
4D
100
AcDbEntity
  8
1
  6
Continuous
 62
     7
100
AcDbLine
 10
-21.99036597792411
 20
11.0392519172633
 30
0.0
 11
-21.99036597792411
 21
10.84673060906323
 31
0.0
  0
LINE
  5
6E
102
{ACAD_REACTORS
330
AD
102
}
330
4D
100
AcDbEntity
  8
1
  6
Continuous
 62
     7
100
AcDbLine
 10
-21.99036597792411
 20
14.15326939093666
 30
0.0
 11
-21.99036597792411
 21
11.0392519172633
 31
0.0
  0
LINE
  5
6F
102
{ACAD_REACTORS
330
AE
102
}
330
4D
100
AcDbEntity
  8
1
  6
Continuous
 62
     7
100
AcDbLine
 10
-18.8236067957539
 20
8.44261746499581
 30
0.0
 11
-20.99018094691701
 21
9.69256409066691
 31
0.0
  0
LINE
  5
70
102
{ACAD_REACTORS
330
AE
102
}
330
4D
100
AcDbEntity
  8
1
  6
Continuous
 62
     7
100
AcDbLine
 10
-20.6570326445908
 20
10.2700211480327
 30
0.0
 11
-18.49045849342753
 21
9.0200745223616
 31
0.0
  0
LINE
  5
71
102
{ACAD_REACTORS
330
AE
102
}
330
4D
100
AcDbEntity
  8
1
  6
Continuous
 62
     7
100
AcDbLine
 10
-20.6570326445908
 20
14.92250016016737
 30
0.0
 11
-20.6570326445908
 21
10.2700211480327
 31
0.0
  0
LINE
  5
72
102
{ACAD_REACTORS
330
AE
102
}
330
4D
100
AcDbEntity
  8
1
  6
Continuous
 62
     7
100
AcDbLine
 10
-21.32369931125732
 20
10.27002114803258
 30
0.0
 11
-21.32369931125732
 21
14.92250016016737
 31
0.0
  0
LINE
  5
73
102
{ACAD_REACTORS
330
AF
102
}
330
4D
100
AcDbEntity
  8
1
  6
Continuous
 62
     7
100
AcDbLine
 10
-17.15146632821421
 20
15.86370041827229
 30
0.0
 11
-18.32369931125732
 21
13.83333333333326
 31
0.0
  0
LINE
  5
74
102
{ACAD_REACTORS
330
AF
102
}
330
4D
100
AcDbEntity
  8
1
  6
Continuous
 62
     7
100
AcDbLine
 10
-16.6570326445908
 20
9.3082690706018
 30
0.0
 11
-16.6570326445908
 21
15.73121731203457
 31
0.0
  0
LINE
  5
75
102
{ACAD_REACTORS
330
AF
102
}
330
4D
100
AcDbEntity
  8
1
  6
Continuous
 62
     7
100
AcDbLine
 10
-17.32369931125732
 20
12.5
 30
0.0
 11
-17.32369931125732
 21
9.3082690706018
 31
0.0
  0
LINE
  5
76
102
{ACAD_REACTORS
330
AF
102
}
330
4D
100
AcDbEntity
  8
1
  6
Continuous
 62
     7
100
AcDbLine
 10
-19.32369931125732
 20
10.84758507263291
 30
0.0
 11
-19.32369931125732
 21
12.5
 31
0.0
  0
LINE
  5
77
102
{ACAD_REACTORS
330
AF
102
}
330
4D
100
AcDbEntity
  8
1
  6
Continuous
 62
     7
100
AcDbLine
 10
-19.99036597792411
 20
12.5
 30
0.0
 11
-19.99036597792411
 21
10.84758507263291
 31
0.0
  0
LINE
  5
78
102
{ACAD_REACTORS
330
AF
102
}
330
4D
100
AcDbEntity
  8
1
  6
Continuous
 62
     7
100
AcDbLine
 10
-19.4959322943007
 20
15.86370041827229
 30
0.0
 11
-18.32369931125732
 21
13.83333333333326
 31
0.0
  0
LINE
  5
79
102
{ACAD_REACTORS
330
AF
102
}
330
4D
100
AcDbEntity
  8
1
  6
Continuous
 62
     7
100
AcDbLine
 10
-19.99036597792411
 20
12.5
 30
0.0
 11
-19.99036597792411
 21
15.73121731203457
 31
0.0
  0
LINE
  5
7A
330
4D
100
AcDbEntity
  8
1
  6
Continuous
 62
     7
100
AcDbLine
 10
-18.32369931125732
 20
7.5
 30
0.0
 11
-26.74013458639894
 21
12.35563573565855
 31
0.0
  0
LINE
  5
7B
330
4D
100
AcDbEntity
  8
1
  6
Continuous
 62
     7
100
AcDbLine
 10
-9.90726403611603
 20
12.35563573565855
 30
0.0
 11
-18.32369931125732
 21
7.5
 31
0.0
  0
LINE
  5
7C
330
4D
100
AcDbEntity
  8
1
  6
Continuous
 62
     7
100
AcDbLine
 10
-18.32369931125732
 20
17.5
 30
0.0
 11
-9.90726403611603
 21
12.64436426434133
 31
0.0
  0
LINE
  5
7D
330
4D
100
AcDbEntity
  8
1
  6
Continuous
 62
     7
100
AcDbLine
 10
-26.74013458639894
 20
12.64436426434133
 30
0.0
 11
-18.32369931125732
 21
17.5
 31
0.0
  0
LINE
  5
7E
102
{ACAD_REACTORS
330
AF
102
}
330
4D
100
AcDbEntity
  8
1
  6
Continuous
 62
     7
100
AcDbLine
 10
-19.32369931125732
 20
14.23205080756884
 30
0.0
 11
-19.32369931125732
 21
12.5
 31
0.0
  0
LINE
  5
7F
102
{ACAD_REACTORS
330
AF
102
}
330
4D
100
AcDbEntity
  8
1
  6
Continuous
 62
     7
100
AcDbLine
 10
-18.46803687855481
 20
12.75
 30
0.0
 11
-19.32369931125732
 21
14.23205080756884
 31
0.0
  0
LINE
  5
80
102
{ACAD_REACTORS
330
AF
102
}
330
4D
100
AcDbEntity
  8
1
  6
Continuous
 62
     7
100
AcDbLine
 10
-17.32369931125732
 20
14.23205080756884
 30
0.0
 11
-18.1793617439601
 21
12.75
 31
0.0
  0
LINE
  5
81
102
{ACAD_REACTORS
330
AF
102
}
330
4D
100
AcDbEntity
  8
1
  6
Continuous
 62
     7
100
AcDbLine
 10
-17.32369931125732
 20
12.5
 30
0.0
 11
-17.32369931125732
 21
14.23205080756884
 31
0.0
  0
LINE
  5
82
102
{ACAD_REACTORS
330
AC
102
}
330
4D
100
AcDbEntity
  8
1
  6
Continuous
 62
     7
100
AcDbLine
 10
-15.99036597792411
 20
10.07749983983263
 30
0.0
 11
-15.99036597792411
 21
14.92250016016737
 31
0.0
  0
LINE
  5
83
330
4D
100
AcDbEntity
  8
1
  6
Continuous
 62
     7
100
AcDbLine
 10
-5.0
 20
189.0
 30
0.0
 11
-292.0000000000003
 21
189.0
 31
0.0
  0
LINE
  5
84
330
4D
100
AcDbEntity
  8
1
  6
Continuous
 62
     7
100
AcDbLine
 10
-5.0
 20
5.0
 30
0.0
 11
-5.0
 21
189.0
 31
0.0
  0
LINE
  5
85
330
4D
100
AcDbEntity
  8
1
  6
Continuous
 62
     7
100
AcDbLine
 10
-292.0000000000003
 20
5.0
 30
0.0
 11
-5.0
 21
5.0
 31
0.0
  0
LINE
  5
86
330
4D
100
AcDbEntity
  8
1
  6
Continuous
 62
     7
100
AcDbLine
 10
0.0
 20
0.0
 30
0.0
 11
0.0
 21
210.0000000000001
 31
0.0
  0
LINE
  5
87
330
4D
100
AcDbEntity
  8
1
  6
Continuous
 62
     7
100
AcDbLine
 10
0.0
 20
210.0000000000001
 30
0.0
 11
-297.0000000000002
 21
210.0000000000001
 31
0.0
  0
LINE
  5
88
330
4D
100
AcDbEntity
  8
1
  6
Continuous
 62
     7
100
AcDbLine
 10
-297.0000000000002
 20
210.0000000000001
 30
0.0
 11
-297.0000000000002
 21
0.0
 31
0.0
  0
LINE
  5
89
330
4D
100
AcDbEntity
  8
1
  6
Continuous
 62
     7
100
AcDbLine
 10
-297.0000000000002
 20
0.0
 30
0.0
 11
0.0
 21
0.0
 31
0.0
  0
LINE
  5
8A
330
4D
100
AcDbEntity
  8
1
  6
Continuous
 62
     7
100
AcDbLine
 10
-148.5000000000004
 20
210.0000000000001
 30
0.0
 11
-148.5000000000004
 21
195.0000000000001
 31
0.0
  0
LINE
  5
8B
330
4D
100
AcDbEntity
  8
1
  6
Continuous
 62
     7
100
AcDbLine
 10
-159.0000000000001
 20
20.0
 30
0.0
 11
-159.0000000000001
 21
5.0
 31
0.0
  0
LINE
  5
8C
330
4D
100
AcDbEntity
  8
1
  6
Continuous
 62
     7
100
AcDbLine
 10
-31.64739862251474
 20
20.0
 30
0.0
 11
-31.64739862251474
 21
5.0
 31
0.0
  0
LINE
  5
8D
330
4D
100
AcDbEntity
  8
1
  6
Continuous
 62
     7
100
AcDbLine
 10
-49.00000000000003
 20
20.0
 30
0.0
 11
-49.00000000000003
 21
5.0
 31
0.0
  0
LINE
  5
8E
330
4D
100
AcDbEntity
  8
1
  6
Continuous
 62
     7
100
AcDbLine
 10
-189.0000000000001
 20
14.99999999999989
 30
0.0
 11
-159.0000000000001
 21
14.99999999999989
 31
0.0
  0
LINE
  5
8F
330
4D
100
AcDbEntity
  8
1
  6
Continuous
 62
     7
100
AcDbLine
 10
-189.0000000000001
 20
9.99999999999986
 30
0.0
 11
-159.0000000000001
 21
9.99999999999986
 31
0.0
  0
ARC
  5
90
102
{ACAD_REACTORS
330
AC
102
}
330
4D
100
AcDbEntity
  8
1
  6
Continuous
 62
     7
100
AcDbCircle
 10
-14.32369931125732
 20
10.84673060906323
 30
0.0
 40
0.3333333333333198
100
AcDbArc
 50
299.9816393688342
 51
119.9816393688648
  0
ARC
  5
91
102
{ACAD_REACTORS
330
AC
102
}
330
4D
100
AcDbEntity
  8
1
  6
Continuous
 62
     7
100
AcDbCircle
 10
-14.32369931125732
 20
12.5
 30
0.0
 40
0.3333333333333695
100
AcDbArc
 50
270.0
 51
90.0
  0
ARC
  5
92
102
{ACAD_REACTORS
330
AC
102
}
330
4D
100
AcDbEntity
  8
1
  6
Continuous
 62
     7
100
AcDbCircle
 10
-14.32369931125732
 20
14.15326939093666
 30
0.0
 40
0.3333333333334563
100
AcDbArc
 50
240.0183606311257
 51
60.01836063115558
  0
ARC
  5
93
102
{ACAD_REACTORS
330
AD
102
}
330
4D
100
AcDbEntity
  8
1
  6
Continuous
 62
     7
100
AcDbCircle
 10
-22.32369931125732
 20
10.84673060906323
 30
0.0
 40
0.3333333333334778
100
AcDbArc
 50
180.0
 51
0.0
  0
ARC
  5
94
102
{ACAD_REACTORS
330
AD
102
}
330
4D
100
AcDbEntity
  8
1
  6
Continuous
 62
     7
100
AcDbCircle
 10
-22.32369931125732
 20
14.15326939093666
 30
0.0
 40
0.3333333333332114
100
AcDbArc
 50
0.0
 51
180.0
  0
ARC
  5
95
102
{ACAD_REACTORS
330
AE
102
}
330
4D
100
AcDbEntity
  8
1
  6
Continuous
 62
     7
100
AcDbCircle
 10
-18.6570326445908
 20
8.7313459936787
 30
0.0
 40
0.3333333333333123
100
AcDbArc
 50
240.0183606311668
 51
60.01836063114143
  0
ARC
  5
96
102
{ACAD_REACTORS
330
AE
102
}
330
4D
100
AcDbEntity
  8
1
  6
Continuous
 62
     7
100
AcDbCircle
 10
-20.99036597792411
 20
14.92250016016737
 30
0.0
 40
0.3333333333333108
100
AcDbArc
 50
0.0
 51
180.0
  0
ARC
  5
97
102
{ACAD_REACTORS
330
AF
102
}
330
4D
100
AcDbEntity
  8
1
  6
Continuous
 62
     7
100
AcDbCircle
 10
-16.921998857066
 20
15.73121731203457
 30
0.0
 40
0.2649662124752012
100
AcDbArc
 50
0.0
 51
149.9999999999927
  0
ARC
  5
98
102
{ACAD_REACTORS
330
AF
102
}
330
4D
100
AcDbEntity
  8
1
  6
Continuous
 62
     7
100
AcDbCircle
 10
-16.99036597792411
 20
9.3082690706018
 30
0.0
 40
0.3333333333332114
100
AcDbArc
 50
180.0
 51
0.0
  0
ARC
  5
99
102
{ACAD_REACTORS
330
AF
102
}
330
4D
100
AcDbEntity
  8
1
  6
Continuous
 62
     7
100
AcDbCircle
 10
-19.6570326445908
 20
10.84758507263291
 30
0.0
 40
0.3333333333333108
100
AcDbArc
 50
180.0
 51
0.0
  0
ARC
  5
9A
102
{ACAD_REACTORS
330
AF
102
}
330
4D
100
AcDbEntity
  8
1
  6
Continuous
 62
     7
100
AcDbCircle
 10
-19.72539976544891
 20
15.73121731203457
 30
0.0
 40
0.2649662124753808
100
AcDbArc
 50
30.00000000000731
 51
180.0
  0
ARC
  5
9B
102
{ACAD_REACTORS
330
AC
102
}
330
4D
100
AcDbEntity
  8
1
  6
Continuous
 62
     7
100
AcDbCircle
 10
-15.6570326445908
 20
10.07749983983263
 30
0.0
 40
0.3333333333333108
100
AcDbArc
 50
180.0
 51
299.9816393688583
  0
ARC
  5
9C
102
{ACAD_REACTORS
330
AC
102
}
330
4D
100
AcDbEntity
  8
1
  6
Continuous
 62
     7
100
AcDbCircle
 10
-15.6570326445908
 20
14.92250016016737
 30
0.0
 40
0.3333333333333997
100
AcDbArc
 50
60.018360631142
 51
180.0
  0
ARC
  5
9D
330
4D
100
AcDbEntity
  8
1
  6
Continuous
 62
     7
100
AcDbCircle
 10
-9.99055111169741
 20
12.5
 30
0.0
 40
0.1666666666665734
100
AcDbArc
 50
299.9816393687826
 51
60.01836063119693
  0
ARC
  5
9E
330
4D
100
AcDbEntity
  8
1
  6
Continuous
 62
     7
100
AcDbCircle
 10
-26.65684751081722
 20
12.5
 30
0.0
 40
0.1666666666666407
100
AcDbArc
 50
119.9816393689046
 51
240.0183606311158
  0
ARC
  5
9F
102
{ACAD_REACTORS
330
AE
102
}
330
4D
100
AcDbEntity
  8
1
  6
Continuous
 62
     7
100
AcDbCircle
 10
-20.6570326445908
 20
10.2700211480327
 30
0.0
 40
0.6666666666665222
100
AcDbArc
 50
180.0000000000104
 51
240.018360631166
  0
ARC
  5
A0
102
{ACAD_REACTORS
330
AF
102
}
330
4D
100
AcDbEntity
  8
1
  6
Continuous
 62
     7
100
AcDbCircle
 10
-18.32369931125732
 20
12.83333333333326
 30
0.0
 40
0.1666666666666997
100
AcDbArc
 50
209.999999999964
 51
329.9999999999902
  0
MTEXT
  5
A2
330
4D
100
AcDbEntity
  8
1
 62
     7
100
AcDbMText
 10
-40.32369931125732
 20
10.06063942075605
 30
0.0
 40
4.5
 41
0.0
 71
     5
 72
     1
  1
1:2
  7
CONVERTER_11
 73
     1
 44
1.32052821128451
  0
MTEXT
  5
A3
330
4D
100
AcDbEntity
  8
1
 62
     7
100
AcDbMText
 10
-40.32369931125732
 20
16.26063942075598
 30
0.0
 40
3.0
 41
0.0
 71
     5
 72
     1
  1
Scale
  7
CONVERTER_11
 73
     1
 44
1.32052821128451
  0
MTEXT
  5
A4
330
4D
100
AcDbEntity
  8
1
 62
     7
100
AcDbMText
 10
-152.7236993112574
 20
12.5
 30
0.0
 40
4.5
 41
0.0
 71
     4
 72
     1
  1
CHIN 06 L\PBulkhead mounting housing, 1 lever - LS TYPE
  7
CONVERTER_11
 73
     1
 44
0.90036014405762
  0
MTEXT
  5
A5
330
4D
100
AcDbEntity
  8
1
 62
     7
100
AcDbMText
 10
-145.5000000000004
 20
194.0000000000001
 30
0.0
 40
4.0
 41
0.0
 71
     5
 72
     1
  1
Diritti riservati      All rights reserved
  7
CONVERTER_11
 73
     1
 44
1.32052821128451
  0
MTEXT
  5
A7
330
4D
100
AcDbEntity
  8
1
 62
     7
100
AcDbMText
 10
-174.0000000000001
 20
17.49999999999994
 30
0.0
 40
2.5
 41
0.0
 71
     5
 72
     1
  1
dimensions in mm
  7
CONVERTER_12
 73
     1
 44
0.60024009603842
  0
MTEXT
  5
A8
330
4D
100
AcDbEntity
  8
1
 62
     7
100
AcDbMText
 10
-188.0000000000001
 20
12.49999999999987
 30
0.0
 40
3.0
 41
0.0
 71
     4
 72
     1
  1
Date
  7
CONVERTER_11
 73
     1
 44
1.32052821128451
  0
MTEXT
  5
A9
330
4D
100
AcDbEntity
  8
1
 62
     7
100
AcDbMText
 10
-177.4000000000002
 20
12.49999999999987
 30
0.0
 40
3.0
 41
0.0
 71
     4
 72
     1
  1
23/06/14
  7
CONVERTER_11
 73
     1
 44
1.32052821128451
  0
MTEXT
  5
AA
330
4D
100
AcDbEntity
  8
1
 62
     7
100
AcDbMText
 10
-188.0000000000001
 20
7.49999999999988
 30
0.0
 40
3.0
 41
0.0
 71
     4
 72
     1
  1
Sign.
  7
CONVERTER_11
 73
     1
 44
1.32052821128451
  0
MTEXT
  5
AB
330
4D
100
AcDbEntity
  8
1
 62
     7
100
AcDbMText
 10
-177.4000000000002
 20
7.49999999999988
 30
0.0
 40
3.0
 41
0.0
 71
     4
 72
     1
  1
Radice
  7
CONVERTER_11
 73
     1
 44
1.32052821128451
  0
HATCH
  5
AC
330
4D
100
AcDbEntity
  8
1
  6
Continuous
 62
     7
100
AcDbHatch
 10
0.0
 20
0.0
 30
0.0
210
0.0
220
0.0
230
1.0
  2
SOLID
 70
     1
 71
     1
 91
        1
 92
        1
 93
       14
 72
     2
 10
-15.6570326445908
 20
14.92250016016737
 40
0.3333333333333997
 50
60.018360631142
 51
180.0
 73
     1
 72
     1
 10
-15.99036597792411
 20
14.92250016016737
 11
-15.99036597792411
 21
10.07749983983263
 72
     2
 10
-15.6570326445908
 20
10.07749983983263
 40
0.3333333333333108
 50
180.0
 51
299.9816393688583
 73
     1
 72
     1
 10
-15.49045849342753
 20
9.788771311149734
 11
-14.15712516009421
 21
10.55800208038033
 72
     2
 10
-14.32369931125732
 20
10.84673060906323
 40
0.3333333333333198
 50
299.9816393688342
 51
479.9816393688648
 73
     1
 72
     1
 10
-14.4902734624207
 20
11.13545913774624
 11
-15.32369931125732
 21
10.65463653264794
 72
     1
 10
-15.32369931125732
 20
10.65463653264794
 11
-15.32369931125732
 21
12.16666666666663
 72
     1
 10
-15.32369931125732
 20
12.16666666666663
 11
-14.32369931125732
 21
12.16666666666663
 72
     2
 10
-14.32369931125732
 20
12.5
 40
0.3333333333333695
 50
270.0
 51
450.0
 73
     1
 72
     1
 10
-14.32369931125732
 20
12.83333333333326
 11
-15.32369931125732
 21
12.83333333333326
 72
     1
 10
-15.32369931125732
 20
12.83333333333326
 11
-15.32369931125732
 21
14.34536346735195
 72
     1
 10
-15.32369931125732
 20
14.34536346735195
 11
-14.4902734624207
 21
13.86454086225376
 72
     2
 10
-14.32369931125732
 20
14.15326939093666
 40
0.3333333333334563
 50
240.0183606311257
 51
420.0183606311556
 73
     1
 72
     1
 10
-14.15712516009421
 20
14.44199791961944
 11
-15.49045849342753
 21
15.21122868885027
 97
       14
330
92
330
6A
330
69
330
68
330
91
330
67
330
66
330
65
330
90
330
64
330
9B
330
82
330
9C
330
6B
 75
     0
 76
     1
 98
        1
 10
0.0
 20
0.0
  0
HATCH
  5
AD
330
4D
100
AcDbEntity
  8
1
  6
Continuous
 62
     7
100
AcDbHatch
 10
0.0
 20
0.0
 30
0.0
210
0.0
220
0.0
230
1.0
  2
SOLID
 70
     1
 71
     1
 91
        1
 92
        1
 93
        5
 72
     2
 10
-22.32369931125732
 20
14.15326939093666
 40
0.3333333333332114
 50
0.0
 51
180.0
 73
     1
 72
     1
 10
-22.6570326445908
 20
14.15326939093666
 11
-22.6570326445908
 21
10.84673060906323
 72
     2
 10
-22.32369931125732
 20
10.84673060906323
 40
0.3333333333334778
 50
180.0
 51
360.0
 73
     1
 72
     1
 10
-21.99036597792411
 20
10.84673060906323
 11
-21.99036597792411
 21
11.0392519172633
 72
     1
 10
-21.99036597792411
 20
11.0392519172633
 11
-21.99036597792411
 21
14.15326939093666
 97
        5
330
94
330
6C
330
93
330
6D
330
6E
 75
     0
 76
     1
 98
        1
 10
0.0
 20
0.0
  0
HATCH
  5
AE
330
4D
100
AcDbEntity
  8
1
  6
Continuous
 62
     7
100
AcDbHatch
 10
0.0
 20
0.0
 30
0.0
210
0.0
220
0.0
230
1.0
  2
SOLID
 70
     1
 71
     1
 91
        1
 92
        1
 93
        7
 72
     2
 10
-20.99036597792411
 20
14.92250016016737
 40
0.3333333333333108
 50
0.0
 51
180.0
 73
     1
 72
     1
 10
-21.32369931125732
 20
14.92250016016737
 11
-21.32369931125732
 21
10.27002114803258
 72
     2
 10
-20.6570326445908
 20
10.2700211480327
 40
0.6666666666665222
 50
180.0000000000104
 51
240.018360631166
 73
     1
 72
     1
 10
-20.99018094691701
 20
9.69256409066691
 11
-18.8236067957539
 21
8.44261746499581
 72
     2
 10
-18.6570326445908
 20
8.731345993678705
 40
0.3333333333333123
 50
240.0183606311668
 51
420.0183606311414
 73
     1
 72
     1
 10
-18.49045849342753
 20
9.0200745223616
 11
-20.6570326445908
 21
10.2700211480327
 72
     1
 10
-20.6570326445908
 20
10.2700211480327
 11
-20.6570326445908
 21
14.92250016016737
 97
        7
330
96
330
72
330
9F
330
6F
330
95
330
70
330
71
 75
     0
 76
     1
 98
        1
 10
0.0
 20
0.0
  0
HATCH
  5
AF
330
4D
100
AcDbEntity
  8
1
  6
Continuous
 62
     7
100
AcDbHatch
 10
0.0
 20
0.0
 30
0.0
210
0.0
220
0.0
230
1.0
  2
SOLID
 70
     1
 71
     1
 91
        1
 92
        1
 93
       16
 72
     2
 10
-16.921998857066
 20
15.73121731203457
 40
0.2649662124752012
 50
210.0000000000073
 51
360.0
 73
     0
 72
     1
 10
-16.6570326445908
 20
15.73121731203457
 11
-16.6570326445908
 21
9.3082690706018
 72
     2
 10
-16.99036597792411
 20
9.3082690706018
 40
0.3333333333332114
 50
0.0
 51
180.0
 73
     0
 72
     1
 10
-17.32369931125732
 20
9.3082690706018
 11
-17.32369931125732
 21
12.5
 72
     1
 10
-17.32369931125732
 20
12.5
 11
-17.32369931125732
 21
14.23205080756884
 72
     1
 10
-17.32369931125732
 20
14.23205080756884
 11
-18.1793617439601
 21
12.75
 72
     2
 10
-18.32369931125732
 20
12.83333333333326
 40
0.1666666666666997
 50
30.00000000000984
 51
150.000000000036
 73
     0
 72
     1
 10
-18.46803687855481
 20
12.75
 11
-19.32369931125732
 21
14.23205080756884
 72
     1
 10
-19.32369931125732
 20
14.23205080756884
 11
-19.32369931125732
 21
12.5
 72
     1
 10
-19.32369931125732
 20
12.5
 11
-19.32369931125732
 21
10.84758507263291
 72
     2
 10
-19.6570326445908
 20
10.84758507263291
 40
0.3333333333333108
 50
0.0
 51
180.0
 73
     0
 72
     1
 10
-19.99036597792411
 20
10.84758507263291
 11
-19.99036597792411
 21
12.5
 72
     1
 10
-19.99036597792411
 20
12.5
 11
-19.99036597792411
 21
15.73121731203457
 72
     2
 10
-19.72539976544891
 20
15.73121731203457
 40
0.2649662124753808
 50
180.0
 51
329.9999999999927
 73
     0
 72
     1
 10
-19.4959322943007
 20
15.86370041827229
 11
-18.32369931125732
 21
13.83333333333326
 72
     1
 10
-18.32369931125732
 20
13.83333333333326
 11
-17.15146632821421
 21
15.86370041827229
 97
       16
330
78
330
9A
330
79
330
77
330
99
330
76
330
7E
330
7F
330
A0
330
80
330
81
330
75
330
98
330
74
330
97
330
73
 75
     0
 76
     1
 98
        1
 10
0.0
 20
0.0
  0
ENDBLK
  5
4F
330
4D
100
AcDbEntity
  8
0
100
AcDbBlockEnd
  0
BLOCK
  5
52
330
50
100
AcDbEntity
  8
0
100
AcDbBlockBegin
  2
A4_oriz
 70
     0
 10
297.0000000000001
 20
0.0
 30
0.0
  3
A4_oriz
  1

  0
INSERT
  5
51
330
50
100
AcDbEntity
  8
1
100
AcDbBlockReference
  2
_formato_A4
 10
297.0000000000002
 20
0.0
 30
0.0
  0
ENDBLK
  5
53
330
50
100
AcDbEntity
  8
0
100
AcDbBlockEnd
  0
BLOCK
  5
2B0
330
2A8
100
AcDbEntity
  8
0
100
AcDbBlockBegin
  2
*D3
 70
     1
 10
0.0
 20
0.0
 30
0.0
  3
*D3
  1

  0
LINE
  5
2A9
330
2A8
100
AcDbEntity
  8
1
  6
Continuous
 62
     2
100
AcDbLine
 10
29.97180382512655
 20
70.99010449329904
 30
0.0
 11
64.9718038251267
 21
70.99010449329904
 31
0.0
  0
LINE
  5
2AA
330
2A8
100
AcDbEntity
  8
1
  6
Continuous
 62
     2
100
AcDbLine
 10
29.97180382512655
 20
94.49010449329904
 30
0.0
 11
29.97180382512655
 21
69.99010449329904
 31
0.0
  0
LINE
  5
2AB
330
2A8
100
AcDbEntity
  8
1
  6
Continuous
 62
     2
100
AcDbLine
 10
64.9718038251267
 20
94.49010449329903
 30
0.0
 11
64.9718038251267
 21
69.99010449329904
 31
0.0
  0
SOLID
  5
2AC
330
2A8
100
AcDbEntity
  8
1
 62
     2
100
AcDbTrace
 10
32.97180382512656
 20
71.38506198606123
 30
0.0
 11
32.97180382512656
 21
70.59514700053685
 31
0.0
 12
29.97180382512655
 22
70.99010449329904
 32
0.0
 13
29.97180382512655
 23
70.99010449329904
 33
0.0
  0
SOLID
  5
2AD
330
2A8
100
AcDbEntity
  8
1
 62
     2
100
AcDbTrace
 10
61.9718038251267
 20
70.59514700053685
 30
0.0
 11
61.9718038251267
 21
71.38506198606123
 31
0.0
 12
64.9718038251267
 22
70.99010449329904
 32
0.0
 13
64.9718038251267
 23
70.99010449329904
 33
0.0
  0
MTEXT
  5
2AF
330
2A8
100
AcDbEntity
  8
1
 62
     4
100
AcDbMText
 10
45.22180382512664
 20
72.99010449329904
 30
0.0
 40
3.0
 41
0.0
 71
     7
 72
     1
  1
35
  7
CONVERTER_13
 11
0.9999999999970619
 21
2.424068405545306E-6
 31
0.0
 73
     1
 44
0.60024009603842
  0
ENDBLK
  5
2B1
330
2A8
100
AcDbEntity
  8
0
100
AcDbBlockEnd
  0
BLOCK
  5
2BB
330
2B4
100
AcDbEntity
  8
0
100
AcDbBlockBegin
  2
*D4
 70
     1
 10
0.0
 20
0.0
 30
0.0
  3
*D4
  1

  0
LINE
  5
2B5
330
2B4
100
AcDbEntity
  8
1
  6
Continuous
 62
     2
100
AcDbLine
 10
31.47180382512645
 20
170.990104493299
 30
0.0
 11
63.4718038251267
 21
170.990104493299
 31
0.0
  0
LINE
  5
2B6
330
2B4
100
AcDbEntity
  8
1
  6
Continuous
 62
     2
100
AcDbLine
 10
31.47180382512645
 20
163.740104493299
 30
0.0
 11
31.47180382512645
 21
171.990104493299
 31
0.0
  0
LINE
  5
2B7
330
2B4
100
AcDbEntity
  8
1
  6
Continuous
 62
     2
100
AcDbLine
 10
63.4718038251267
 20
163.740104493299
 30
0.0
 11
63.4718038251267
 21
171.990104493299
 31
0.0
  0
SOLID
  5
2B8
330
2B4
100
AcDbEntity
  8
1
 62
     2
100
AcDbTrace
 10
34.47180382512646
 20
171.3850619860612
 30
0.0
 11
34.47180382512646
 21
170.5951470005368
 31
0.0
 12
31.47180382512645
 22
170.990104493299
 32
0.0
 13
31.47180382512645
 23
170.990104493299
 33
0.0
  0
SOLID
  5
2B9
330
2B4
100
AcDbEntity
  8
1
 62
     2
100
AcDbTrace
 10
60.4718038251267
 20
170.5951470005368
 30
0.0
 11
60.4718038251267
 21
171.3850619860612
 31
0.0
 12
63.4718038251267
 22
170.990104493299
 32
0.0
 13
63.4718038251267
 23
170.990104493299
 33
0.0
  0
MTEXT
  5
2BA
330
2B4
100
AcDbEntity
  8
1
 62
     4
100
AcDbMText
 10
45.22180382512659
 20
172.990104493299
 30
0.0
 40
3.0
 41
0.0
 71
     7
 72
     1
  1
32
  7
CONVERTER_13
 11
0.9999999999970619
 21
2.424068405545306E-6
 31
0.0
 73
     1
 44
0.60024009603842
  0
ENDBLK
  5
2BC
330
2B4
100
AcDbEntity
  8
0
100
AcDbBlockEnd
  0
BLOCK
  5
2C6
330
2BF
100
AcDbEntity
  8
0
100
AcDbBlockBegin
  2
*D5
 70
     1
 10
0.0
 20
0.0
 30
0.0
  3
*D5
  1

  0
LINE
  5
2C0
330
2BF
100
AcDbEntity
  8
1
  6
Continuous
 62
     2
100
AcDbLine
 10
79.9718038251267
 20
155.990104493299
 30
0.0
 11
79.9718038251267
 21
85.990104493299
 31
0.0
  0
LINE
  5
2C1
330
2BF
100
AcDbEntity
  8
1
  6
Continuous
 62
     2
100
AcDbLine
 10
71.2218038251267
 20
155.990104493299
 30
0.0
 11
80.9718038251267
 21
155.990104493299
 31
0.0
  0
LINE
  5
2C2
330
2BF
100
AcDbEntity
  8
1
  6
Continuous
 62
     2
100
AcDbLine
 10
71.2218038251267
 20
85.990104493299
 30
0.0
 11
80.9718038251267
 21
85.990104493299
 31
0.0
  0
SOLID
  5
2C3
330
2BF
100
AcDbEntity
  8
1
 62
     2
100
AcDbTrace
 10
80.36676131788889
 20
152.990104493299
 30
0.0
 11
79.57684633236451
 21
152.990104493299
 31
0.0
 12
79.9718038251267
 22
155.990104493299
 32
0.0
 13
79.9718038251267
 23
155.990104493299
 33
0.0
  0
SOLID
  5
2C4
330
2BF
100
AcDbEntity
  8
1
 62
     2
100
AcDbTrace
 10
79.57684633236451
 20
88.990104493299
 30
0.0
 11
80.36676131788889
 21
88.990104493299
 31
0.0
 12
79.9718038251267
 22
85.990104493299
 32
0.0
 13
79.9718038251267
 23
85.990104493299
 33
0.0
  0
MTEXT
  5
2C5
330
2BF
100
AcDbEntity
  8
1
 62
     4
100
AcDbMText
 10
77.9718038251267
 20
118.740104493299
 30
0.0
 40
3.0
 41
0.0
 71
     7
 72
     1
  1
70
  7
CONVERTER_13
 11
0.0
 21
1.0
 31
0.0
 73
     1
 44
0.60024009603842
  0
ENDBLK
  5
2C7
330
2BF
100
AcDbEntity
  8
0
100
AcDbBlockEnd
  0
BLOCK
  5
2D1
330
2CA
100
AcDbEntity
  8
0
100
AcDbBlockBegin
  2
*D6
 70
     1
 10
0.0
 20
0.0
 30
0.0
  3
*D6
  1

  0
LINE
  5
2CB
330
2CA
100
AcDbEntity
  8
1
  6
Continuous
 62
     2
100
AcDbLine
 10
19.97180382512664
 20
146.990104493299
 30
0.0
 11
19.97180382512664
 21
94.990104493299
 31
0.0
  0
LINE
  5
2CC
330
2CA
100
AcDbEntity
  8
1
  6
Continuous
 62
     2
100
AcDbLine
 10
29.4718038251267
 20
146.990104493299
 30
0.0
 11
18.97180382512664
 21
146.990104493299
 31
0.0
  0
LINE
  5
2CD
330
2CA
100
AcDbEntity
  8
1
  6
Continuous
 62
     2
100
AcDbLine
 10
29.47180382512653
 20
94.990104493299
 30
0.0
 11
18.97180382512664
 21
94.990104493299
 31
0.0
  0
SOLID
  5
2CE
330
2CA
100
AcDbEntity
  8
1
 62
     2
100
AcDbTrace
 10
20.36676131788883
 20
143.990104493299
 30
0.0
 11
19.57684633236445
 21
143.990104493299
 31
0.0
 12
19.97180382512664
 22
146.990104493299
 32
0.0
 13
19.97180382512664
 23
146.990104493299
 33
0.0
  0
SOLID
  5
2CF
330
2CA
100
AcDbEntity
  8
1
 62
     2
100
AcDbTrace
 10
19.57684633236445
 20
97.990104493299
 30
0.0
 11
20.36676131788883
 21
97.990104493299
 31
0.0
 12
19.97180382512664
 22
94.990104493299
 32
0.0
 13
19.97180382512664
 23
94.990104493299
 33
0.0
  0
MTEXT
  5
2D0
330
2CA
100
AcDbEntity
  8
1
 62
     4
100
AcDbMText
 10
17.97180382512664
 20
118.740104493299
 30
0.0
 40
3.0
 41
0.0
 71
     7
 72
     1
  1
52
  7
CONVERTER_13
 11
0.0
 21
1.0
 31
0.0
 73
     1
 44
0.60024009603842
  0
ENDBLK
  5
2D2
330
2CA
100
AcDbEntity
  8
0
100
AcDbBlockEnd
  0
BLOCK
  5
2DC
330
2D5
100
AcDbEntity
  8
0
100
AcDbBlockBegin
  2
*D7
 70
     1
 10
0.0
 20
0.0
 30
0.0
  3
*D7
  1

  0
LINE
  5
2D6
330
2D5
100
AcDbEntity
  8
1
  6
Continuous
 62
     2
100
AcDbLine
 10
277.8075302879165
 20
132.401498473889
 30
0.0
 11
216.6636468686509
 21
132.401498473889
 31
0.0
  0
LINE
  5
2D7
330
2D5
100
AcDbEntity
  8
1
  6
Continuous
 62
     2
100
AcDbLine
 10
277.8075302879165
 20
97.90149847389281
 30
0.0
 11
277.8075302879165
 21
133.401498473889
 31
0.0
  0
LINE
  5
2D8
330
2D5
100
AcDbEntity
  8
1
  6
Continuous
 62
     2
100
AcDbLine
 10
216.6636468686509
 20
107.1660008714261
 30
0.0
 11
216.6636468686509
 21
133.401498473889
 31
0.0
  0
SOLID
  5
2D9
330
2D5
100
AcDbEntity
  8
1
 62
     2
100
AcDbTrace
 10
274.8075302879165
 20
132.0065409811268
 30
0.0
 11
274.8075302879165
 21
132.7964559666512
 31
0.0
 12
277.8075302879165
 22
132.401498473889
 32
0.0
 13
277.8075302879165
 23
132.401498473889
 33
0.0
  0
SOLID
  5
2DA
330
2D5
100
AcDbEntity
  8
1
 62
     2
100
AcDbTrace
 10
219.6636468686509
 20
132.7964559666512
 30
0.0
 11
219.6636468686509
 21
132.0065409811268
 31
0.0
 12
216.6636468686509
 22
132.401498473889
 32
0.0
 13
216.6636468686509
 23
132.401498473889
 33
0.0
  0
MTEXT
  5
2DB
330
2D5
100
AcDbEntity
  8
1
 62
     4
100
AcDbMText
 10
243.1105885782837
 20
134.701498473889
 30
0.0
 40
3.0
 41
0.0
 71
     7
 72
     1
  1
62,5
  7
CONVERTER_13
 11
0.9999999999970619
 21
2.424068405545306E-6
 31
0.0
 73
     1
 44
0.60024009603842
  0
ENDBLK
  5
2DD
330
2D5
100
AcDbEntity
  8
0
100
AcDbBlockEnd
  0
BLOCK
  5
2E7
330
2E0
100
AcDbEntity
  8
0
100
AcDbBlockBegin
  2
*D8
 70
     1
 10
0.0
 20
0.0
 30
0.0
  3
*D8
  1

  0
LINE
  5
2E1
330
2E0
100
AcDbEntity
  8
1
  6
Continuous
 62
     2
100
AcDbLine
 10
205.4136468686509
 20
77.66600087142612
 30
0.0
 11
205.4136468686509
 21
106.6660008714261
 31
0.0
  0
LINE
  5
2E2
330
2E0
100
AcDbEntity
  8
1
  6
Continuous
 62
     2
100
AcDbLine
 10
214.9136468686509
 20
77.66600087142612
 30
0.0
 11
204.4136468686509
 21
77.66600087142612
 31
0.0
  0
LINE
  5
2E3
330
2E0
100
AcDbEntity
  8
1
  6
Continuous
 62
     2
100
AcDbLine
 10
216.1636468686509
 20
106.6660008714261
 30
0.0
 11
204.4136468686509
 21
106.6660008714261
 31
0.0
  0
SOLID
  5
2E4
330
2E0
100
AcDbEntity
  8
1
 62
     2
100
AcDbTrace
 10
205.0186893758887
 20
80.66600087142612
 30
0.0
 11
205.8086043614131
 21
80.66600087142612
 31
0.0
 12
205.4136468686509
 22
77.66600087142612
 32
0.0
 13
205.4136468686509
 23
77.66600087142612
 33
0.0
  0
SOLID
  5
2E5
330
2E0
100
AcDbEntity
  8
1
 62
     2
100
AcDbTrace
 10
205.8086043614131
 20
103.6660008714261
 30
0.0
 11
205.0186893758887
 21
103.6660008714261
 31
0.0
 12
205.4136468686509
 22
106.6660008714261
 32
0.0
 13
205.4136468686509
 23
106.6660008714261
 33
0.0
  0
MTEXT
  5
2E6
330
2E0
100
AcDbEntity
  8
1
 62
     4
100
AcDbMText
 10
203.4136468686509
 20
89.9160008714261
 30
0.0
 40
3.0
 41
0.0
 71
     7
 72
     1
  1
29
  7
CONVERTER_13
 11
0.0
 21
1.0
 31
0.0
 73
     1
 44
0.60024009603842
  0
ENDBLK
  5
2E8
330
2E0
100
AcDbEntity
  8
0
100
AcDbBlockEnd
  0
BLOCK
  5
2F4
330
2EB
100
AcDbEntity
  8
0
100
AcDbBlockBegin
  2
*D9
 70
     1
 10
0.0
 20
0.0
 30
0.0
  3
*D9
  1

  0
LINE
  5
2EC
330
2EB
100
AcDbEntity
  8
1
  6
Continuous
 62
     2
100
AcDbLine
 10
272.9136468686507
 20
71.66600087142612
 30
0.0
 11
272.9136468686507
 21
77.66600087142612
 31
0.0
  0
LINE
  5
2ED
330
2EB
100
AcDbEntity
  8
1
  6
Continuous
 62
     2
100
AcDbLine
 10
272.9136468686507
 20
77.66600087142612
 30
0.0
 11
272.9136468686507
 21
83.66600087142612
 31
0.0
  0
LINE
  5
2EE
330
2EB
100
AcDbEntity
  8
1
  6
Continuous
 62
     2
100
AcDbLine
 10
272.9136468686507
 20
83.66600087142612
 30
0.0
 11
272.9136468686507
 21
89.66600087142612
 31
0.0
  0
LINE
  5
2EF
330
2EB
100
AcDbEntity
  8
1
  6
Continuous
 62
     2
100
AcDbLine
 10
261.4136468686507
 20
77.66600087142612
 30
0.0
 11
273.9136468686507
 21
77.66600087142612
 31
0.0
  0
LINE
  5
2F0
330
2EB
100
AcDbEntity
  8
1
  6
Continuous
 62
     2
100
AcDbLine
 10
259.9777618820381
 20
83.66600087142612
 30
0.0
 11
273.9136468686507
 21
83.66600087142612
 31
0.0
  0
SOLID
  5
2F1
330
2EB
100
AcDbEntity
  8
1
 62
     2
100
AcDbTrace
 10
273.3086043614128
 20
74.66600087142612
 30
0.0
 11
272.5186893758885
 21
74.66600087142612
 31
0.0
 12
272.9136468686507
 22
77.66600087142612
 32
0.0
 13
272.9136468686507
 23
77.66600087142612
 33
0.0
  0
SOLID
  5
2F2
330
2EB
100
AcDbEntity
  8
1
 62
     2
100
AcDbTrace
 10
272.5186893758885
 20
86.66600087142612
 30
0.0
 11
273.3086043614128
 21
86.66600087142612
 31
0.0
 12
272.9136468686507
 22
83.66600087142612
 32
0.0
 13
272.9136468686507
 23
83.66600087142612
 33
0.0
  0
MTEXT
  5
2F3
330
2EB
100
AcDbEntity
  8
1
 62
     4
100
AcDbMText
 10
270.9136468686507
 20
79.76600087142612
 30
0.0
 40
3.0
 41
0.0
 71
     7
 72
     1
  1
6
  7
CONVERTER_13
 11
0.0
 21
1.0
 31
0.0
 73
     1
 44
0.60024009603842
  0
ENDBLK
  5
2F5
330
2EB
100
AcDbEntity
  8
0
100
AcDbBlockEnd
  0
BLOCK
  5
2FF
330
2F8
100
AcDbEntity
  8
0
100
AcDbBlockBegin
  2
*D10
 70
     1
 10
0.0
 20
0.0
 30
0.0
  3
*D10
  1

  0
LINE
  5
2F9
330
2F8
100
AcDbEntity
  8
1
  6
Continuous
 62
     2
100
AcDbLine
 10
215.4136468686509
 20
53.66600087142612
 30
0.0
 11
260.9136468686508
 21
53.66600087142612
 31
0.0
  0
LINE
  5
2FA
330
2F8
100
AcDbEntity
  8
1
  6
Continuous
 62
     2
100
AcDbLine
 10
215.4136468686509
 20
77.16600087142612
 30
0.0
 11
215.4136468686509
 21
52.66600087142612
 31
0.0
  0
LINE
  5
2FB
330
2F8
100
AcDbEntity
  8
1
  6
Continuous
 62
     2
100
AcDbLine
 10
260.9136468686508
 20
77.16600087142612
 30
0.0
 11
260.9136468686508
 21
52.66600087142612
 31
0.0
  0
SOLID
  5
2FC
330
2F8
100
AcDbEntity
  8
1
 62
     2
100
AcDbTrace
 10
218.4136468686509
 20
54.06095836418831
 30
0.0
 11
218.4136468686509
 21
53.27104337866393
 31
0.0
 12
215.4136468686509
 22
53.66600087142612
 32
0.0
 13
215.4136468686509
 23
53.66600087142612
 33
0.0
  0
SOLID
  5
2FD
330
2F8
100
AcDbEntity
  8
1
 62
     2
100
AcDbTrace
 10
257.9136468686508
 20
53.27104337866393
 30
0.0
 11
257.9136468686508
 21
54.06095836418831
 31
0.0
 12
260.9136468686508
 22
53.66600087142612
 32
0.0
 13
260.9136468686508
 23
53.66600087142612
 33
0.0
  0
MTEXT
  5
2FE
330
2F8
100
AcDbEntity
  8
1
 62
     4
100
AcDbMText
 10
234.0386468686509
 20
55.96600087142612
 30
0.0
 40
3.0
 41
0.0
 71
     7
 72
     1
  1
45,5
  7
CONVERTER_13
 11
0.9999999999970619
 21
2.424068405545306E-6
 31
0.0
 73
     1
 44
0.60024009603842
  0
ENDBLK
  5
300
330
2F8
100
AcDbEntity
  8
0
100
AcDbBlockEnd
  0
BLOCK
  5
30A
330
303
100
AcDbEntity
  8
0
100
AcDbBlockBegin
  2
*D11
 70
     1
 10
0.0
 20
0.0
 30
0.0
  3
*D11
  1

  0
LINE
  5
304
330
303
100
AcDbEntity
  8
1
  6
Continuous
 62
     2
100
AcDbLine
 10
112.9136468198343
 20
53.66600087142612
 30
0.0
 11
195.4136468198343
 21
53.66600087142612
 31
0.0
  0
LINE
  5
305
330
303
100
AcDbEntity
  8
1
  6
Continuous
 62
     2
100
AcDbLine
 10
112.9136468198343
 20
77.16600087142612
 30
0.0
 11
112.9136468198343
 21
52.66600087142612
 31
0.0
  0
LINE
  5
306
330
303
100
AcDbEntity
  8
1
  6
Continuous
 62
     2
100
AcDbLine
 10
195.4136468198343
 20
77.16600087142612
 30
0.0
 11
195.4136468198343
 21
52.66600087142612
 31
0.0
  0
SOLID
  5
307
330
303
100
AcDbEntity
  8
1
 62
     2
100
AcDbTrace
 10
115.9136468198343
 20
54.06095836418831
 30
0.0
 11
115.9136468198343
 21
53.27104337866393
 31
0.0
 12
112.9136468198343
 22
53.66600087142612
 32
0.0
 13
112.9136468198343
 23
53.66600087142612
 33
0.0
  0
SOLID
  5
308
330
303
100
AcDbEntity
  8
1
 62
     2
100
AcDbTrace
 10
192.4136468198343
 20
53.27104337866393
 30
0.0
 11
192.4136468198343
 21
54.06095836418831
 31
0.0
 12
195.4136468198343
 22
53.66600087142612
 32
0.0
 13
195.4136468198343
 23
53.66600087142612
 33
0.0
  0
MTEXT
  5
309
330
303
100
AcDbEntity
  8
1
 62
     4
100
AcDbMText
 10
149.8886468198343
 20
55.96600087142612
 30
0.0
 40
3.0
 41
0.0
 71
     7
 72
     1
  1
82,5
  7
CONVERTER_13
 11
0.9999999999970619
 21
2.424068405545306E-6
 31
0.0
 73
     1
 44
0.60024009603842
  0
ENDBLK
  5
30B
330
303
100
AcDbEntity
  8
0
100
AcDbBlockEnd
  0
BLOCK
  5
315
330
30E
100
AcDbEntity
  8
0
100
AcDbBlockBegin
  2
*D12
 70
     1
 10
0.0
 20
0.0
 30
0.0
  3
*D12
  1

  0
LINE
  5
30F
330
30E
100
AcDbEntity
  8
1
  6
Continuous
 62
     2
100
AcDbLine
 10
116.6586468198343
 20
132.401498473889
 30
0.0
 11
191.6586468198343
 21
132.401498473889
 31
0.0
  0
LINE
  5
310
330
30E
100
AcDbEntity
  8
1
  6
Continuous
 62
     2
100
AcDbLine
 10
116.6586468198343
 20
122.901498473889
 30
0.0
 11
116.6586468198343
 21
133.401498473889
 31
0.0
  0
LINE
  5
311
330
30E
100
AcDbEntity
  8
1
  6
Continuous
 62
     2
100
AcDbLine
 10
191.6586468198343
 20
122.901498473889
 30
0.0
 11
191.6586468198343
 21
133.401498473889
 31
0.0
  0
SOLID
  5
312
330
30E
100
AcDbEntity
  8
1
 62
     2
100
AcDbTrace
 10
119.6586468198343
 20
132.7964559666512
 30
0.0
 11
119.6586468198343
 21
132.0065409811268
 31
0.0
 12
116.6586468198343
 22
132.401498473889
 32
0.0
 13
116.6586468198343
 23
132.401498473889
 33
0.0
  0
SOLID
  5
313
330
30E
100
AcDbEntity
  8
1
 62
     2
100
AcDbTrace
 10
188.6586468198343
 20
132.0065409811268
 30
0.0
 11
188.6586468198343
 21
132.7964559666512
 31
0.0
 12
191.6586468198343
 22
132.401498473889
 32
0.0
 13
191.6586468198343
 23
132.401498473889
 33
0.0
  0
MTEXT
  5
314
330
30E
100
AcDbEntity
  8
1
 62
     4
100
AcDbMText
 10
151.9086468198343
 20
134.401498473889
 30
0.0
 40
3.0
 41
0.0
 71
     7
 72
     1
  1
75
  7
CONVERTER_13
 11
0.9999999999970619
 21
2.424068405545306E-6
 31
0.0
 73
     1
 44
0.60024009603842
  0
ENDBLK
  5
316
330
30E
100
AcDbEntity
  8
0
100
AcDbBlockEnd
  0
BLOCK
  5
320
330
319
100
AcDbEntity
  8
0
100
AcDbBlockBegin
  2
*D13
 70
     1
 10
0.0
 20
0.0
 30
0.0
  3
*D13
  1

  0
LINE
  5
31A
330
319
100
AcDbEntity
  8
1
  6
Continuous
 62
     2
100
AcDbLine
 10
119.1636468198343
 20
65.66600087142612
 30
0.0
 11
189.1636468198343
 21
65.66600087142612
 31
0.0
  0
LINE
  5
31B
330
319
100
AcDbEntity
  8
1
  6
Continuous
 62
     2
100
AcDbLine
 10
119.1636468198343
 20
74.16600087142612
 30
0.0
 11
119.1636468198343
 21
64.66600087142612
 31
0.0
  0
LINE
  5
31C
330
319
100
AcDbEntity
  8
1
  6
Continuous
 62
     2
100
AcDbLine
 10
189.1636468198343
 20
74.16600087142612
 30
0.0
 11
189.1636468198343
 21
64.66600087142612
 31
0.0
  0
SOLID
  5
31D
330
319
100
AcDbEntity
  8
1
 62
     2
100
AcDbTrace
 10
122.1636468198343
 20
66.06095836418831
 30
0.0
 11
122.1636468198343
 21
65.27104337866393
 31
0.0
 12
119.1636468198343
 22
65.66600087142612
 32
0.0
 13
119.1636468198343
 23
65.66600087142612
 33
0.0
  0
SOLID
  5
31E
330
319
100
AcDbEntity
  8
1
 62
     2
100
AcDbTrace
 10
186.1636468198343
 20
65.27104337866393
 30
0.0
 11
186.1636468198343
 21
66.06095836418831
 31
0.0
 12
189.1636468198343
 22
65.66600087142612
 32
0.0
 13
189.1636468198343
 23
65.66600087142612
 33
0.0
  0
MTEXT
  5
31F
330
319
100
AcDbEntity
  8
1
 62
     4
100
AcDbMText
 10
151.9136468198343
 20
67.66600087142612
 30
0.0
 40
3.0
 41
0.0
 71
     7
 72
     1
  1
70
  7
CONVERTER_13
 11
0.9999999999970619
 21
2.424068405545306E-6
 31
0.0
 73
     1
 44
0.60024009603842
  0
ENDBLK
  5
321
330
319
100
AcDbEntity
  8
0
100
AcDbBlockEnd
  0
BLOCK
  5
32B
330
324
100
AcDbEntity
  8
0
100
AcDbBlockBegin
  2
*D14
 70
     1
 10
0.0
 20
0.0
 30
0.0
  3
*D14
  1

  0
LINE
  5
325
330
324
100
AcDbEntity
  8
1
  6
Continuous
 62
     2
100
AcDbLine
 10
222.1636468686509
 20
65.66600087142612
 30
0.0
 11
254.1636468686509
 21
65.66600087142612
 31
0.0
  0
LINE
  5
326
330
324
100
AcDbEntity
  8
1
  6
Continuous
 62
     2
100
AcDbLine
 10
222.1636468686509
 20
74.16600087142612
 30
0.0
 11
222.1636468686509
 21
64.66600087142612
 31
0.0
  0
LINE
  5
327
330
324
100
AcDbEntity
  8
1
  6
Continuous
 62
     2
100
AcDbLine
 10
254.1636468686509
 20
74.16600087142612
 30
0.0
 11
254.1636468686509
 21
64.66600087142612
 31
0.0
  0
SOLID
  5
328
330
324
100
AcDbEntity
  8
1
 62
     2
100
AcDbTrace
 10
225.1636468686509
 20
66.06095836418831
 30
0.0
 11
225.1636468686509
 21
65.27104337866393
 31
0.0
 12
222.1636468686509
 22
65.66600087142612
 32
0.0
 13
222.1636468686509
 23
65.66600087142612
 33
0.0
  0
SOLID
  5
329
330
324
100
AcDbEntity
  8
1
 62
     2
100
AcDbTrace
 10
251.1636468686509
 20
65.27104337866393
 30
0.0
 11
251.1636468686509
 21
66.06095836418831
 31
0.0
 12
254.1636468686509
 22
65.66600087142612
 32
0.0
 13
254.1636468686509
 23
65.66600087142612
 33
0.0
  0
MTEXT
  5
32A
330
324
100
AcDbEntity
  8
1
 62
     4
100
AcDbMText
 10
235.9136468686509
 20
67.66600087142612
 30
0.0
 40
3.0
 41
0.0
 71
     7
 72
     1
  1
32
  7
CONVERTER_13
 11
0.9999999999970619
 21
2.424068405545306E-6
 31
0.0
 73
     1
 44
0.60024009603842
  0
ENDBLK
  5
32C
330
324
100
AcDbEntity
  8
0
100
AcDbBlockEnd
  0
BLOCK
  5
335
330
32F
100
AcDbEntity
  8
0
100
AcDbBlockBegin
  2
*D15
 70
     1
 10
0.0
 20
0.0
 30
0.0
  3
*D15
  1

  0
LINE
  5
330
330
32F
100
AcDbEntity
  8
1
  6
Continuous
 62
     2
100
AcDbLine
 10
57.96671470589217
 20
152.0841482993197
 30
0.0
 11
74.57401561074079
 21
163.8673162789131
 31
0.0
  0
LINE
  5
331
330
32F
100
AcDbEntity
  8
1
  6
Continuous
 62
     2
100
AcDbLine
 10
74.57401561074079
 20
163.8673162789131
 30
0.0
 11
88.42401561074081
 21
163.8673162789131
 31
0.0
  0
SOLID
  5
332
330
32F
100
AcDbEntity
  8
1
 62
     2
100
AcDbTrace
 10
67.52499363412943
 20
159.3501854139444
 30
0.0
 11
67.98208597937773
 21
158.7059554299547
 31
0.0
 12
65.30683353153822
 22
157.2920898912921
 32
0.0
 13
65.30683353153822
 23
157.2920898912921
 33
0.0
  0
SOLID
  5
333
330
32F
100
AcDbEntity
  8
1
 62
     2
100
AcDbTrace
 10
59.41861401612397
 20
152.6300235726536
 30
0.0
 11
58.96152167087568
 21
153.2742535566433
 31
0.0
 12
61.63677411871518
 22
154.6881190953059
 32
0.0
 13
61.63677411871518
 23
154.6881190953059
 33
0.0
  0
MTEXT
  5
334
330
32F
100
AcDbEntity
  8
1
 62
     4
100
AcDbMText
 10
80.41401561074802
 20
166.1673103157048
 30
0.0
 40
3.0
 41
0.0
 71
     7
 72
     1
  1
\C4;\U+00f8\C4;4,5
  7
CONVERTER_13
 11
0.9999999999970619
 21
2.424068405545306E-6
 31
0.0
 73
     1
 44
0.60024009603842
  0
ENDBLK
  5
336
330
32F
100
AcDbEntity
  8
0
100
AcDbBlockEnd
  0
ENDSEC
  0
SECTION
  2
ENTITIES
  0
INSERT
  5
54
330
1F
100
AcDbEntity
  8
0
100
AcDbBlockReference
  2
A4_oriz
 10
297.0000000000001
 20
0.0
 30
0.0
  0
POINT
  5
B0
330
1F
100
AcDbEntity
  8
Bemaßungen_TC_020513_DIN_
 62
     7
100
AcDbPoint
 10
29.97180382512653
 20
94.99010449329904
 30
0.0
  0
POINT
  5
B1
330
1F
100
AcDbEntity
  8
Bemaßungen_TC_020513_DIN_
 62
     7
100
AcDbPoint
 10
29.9718038251267
 20
146.990104493299
 30
0.0
  0
POINT
  5
B2
330
1F
100
AcDbEntity
  8
Bemaßungen_TC_020513_DIN_
 62
     7
100
AcDbPoint
 10
64.9718038251267
 20
94.99010449329903
 30
0.0
  0
POINT
  5
B3
330
1F
100
AcDbEntity
  8
Bemaßungen_TC_020513_DIN_
 62
     7
100
AcDbPoint
 10
29.97180382512653
 20
94.99010449329904
 30
0.0
  0
POINT
  5
B4
330
1F
100
AcDbEntity
  8
Bemaßungen_TC_020513_DIN_
 62
     2
100
AcDbPoint
 10
63.4718038251267
 20
85.99010449329904
 30
0.0
  0
POINT
  5
B5
330
1F
100
AcDbEntity
  8
Bemaßungen_TC_020513_DIN_
 62
     7
100
AcDbPoint
 10
63.4718038251267
 20
155.990104493299
 30
0.0
  0
POINT
  5
B6
330
1F
100
AcDbEntity
  8
Bemaßungen_TC_020513_DIN_
 62
     7
100
AcDbPoint
 10
63.4718038251267
 20
155.990104493299
 30
0.0
  0
POINT
  5
B7
330
1F
100
AcDbEntity
  8
Bemaßungen_TC_020513_DIN_
 62
     7
100
AcDbPoint
 10
31.47180382512642
 20
155.990104493299
 30
0.0
  0
LINE
  5
B8
330
1F
100
AcDbEntity
  8
Sichtbare_Kanten_TC_020513_DIN_
  6
Continuous
 62
     7
100
AcDbLine
 10
156.7886468198343
 20
87.07056797890914
 30
0.0
 11
156.7886468198343
 21
92.26143376394313
 31
0.0
  0
LINE
  5
B9
330
1F
100
AcDbEntity
  8
Sichtbare_Kanten_TC_020513_DIN_
  6
Continuous
 62
     7
100
AcDbLine
 10
159.6010427398923
 20
88.04382530721813
 30
0.0
 11
157.3510427398923
 21
86.74574838414114
 31
0.0
  0
LINE
  5
BA
330
1F
100
AcDbEntity
  8
Sichtbare_Kanten_TC_020513_DIN_
  6
Continuous
 62
     7
100
AcDbLine
 10
157.5386468198343
 20
87.71984675832712
 30
0.0
 11
159.2262508997753
 21
88.69346449675413
 31
0.0
  0
LINE
  5
BB
330
1F
100
AcDbEntity
  8
Sichtbare_Kanten_TC_020513_DIN_
  6
Continuous
 62
     7
100
AcDbLine
 10
157.5386468198343
 20
89.29100087142612
 30
0.0
 11
157.5386468198343
 21
87.71984675832712
 31
0.0
  0
LINE
  5
BC
330
1F
100
AcDbEntity
  8
Sichtbare_Kanten_TC_020513_DIN_
  6
Continuous
 62
     7
100
AcDbLine
 10
159.4136468198343
 20
89.29100087142612
 30
0.0
 11
157.5386468198343
 21
89.29100087142612
 31
0.0
  0
LINE
  5
BD
330
1F
100
AcDbEntity
  8
Sichtbare_Kanten_TC_020513_DIN_
  6
Continuous
 62
     7
100
AcDbLine
 10
157.5386468198343
 20
90.04100087142612
 30
0.0
 11
159.4136468198343
 21
90.04100087142612
 31
0.0
  0
LINE
  5
BE
330
1F
100
AcDbEntity
  8
Sichtbare_Kanten_TC_020513_DIN_
  6
Continuous
 62
     7
100
AcDbLine
 10
157.5386468198343
 20
91.61215498452611
 30
0.0
 11
157.5386468198343
 21
90.04100087142612
 31
0.0
  0
LINE
  5
BF
330
1F
100
AcDbEntity
  8
Sichtbare_Kanten_TC_020513_DIN_
  6
Continuous
 62
     7
100
AcDbLine
 10
159.2262508997753
 20
90.63853724609814
 30
0.0
 11
157.5386468198343
 21
91.61215498452611
 31
0.0
  0
LINE
  5
C0
330
1F
100
AcDbEntity
  8
Sichtbare_Kanten_TC_020513_DIN_
  6
Continuous
 62
     7
100
AcDbLine
 10
157.3510427398923
 20
92.58625335871113
 30
0.0
 11
159.6010427398923
 21
91.28817643563411
 31
0.0
  0
LINE
  5
C1
330
1F
100
AcDbEntity
  8
Sichtbare_Kanten_TC_020513_DIN_
  6
Continuous
 62
     7
100
AcDbLine
 10
149.2136468198343
 20
87.97922182506312
 30
0.0
 11
149.2136468198343
 21
91.35277991778912
 31
0.0
  0
LINE
  5
C2
330
1F
100
AcDbEntity
  8
Sichtbare_Kanten_TC_020513_DIN_
  6
Continuous
 62
     7
100
AcDbLine
 10
149.9636468198343
 20
91.35277991778912
 30
0.0
 11
149.9636468198343
 21
87.97922182506312
 31
0.0
  0
LINE
  5
C3
330
1F
100
AcDbEntity
  8
Sichtbare_Kanten_TC_020513_DIN_
  6
Continuous
 62
     7
100
AcDbLine
 10
145.1640633708242
 20
89.66600087142612
 30
0.0
 11
154.1636468198343
 21
84.47393349699712
 31
0.0
  0
LINE
  5
C4
330
1F
100
AcDbEntity
  8
Sichtbare_Kanten_TC_020513_DIN_
  6
Continuous
 62
     7
100
AcDbLine
 10
154.1636468198343
 20
84.47393349699712
 30
0.0
 11
163.1632302688432
 21
89.66600087142612
 31
0.0
  0
LINE
  5
C5
330
1F
100
AcDbEntity
  8
Sichtbare_Kanten_TC_020513_DIN_
  6
Continuous
 62
     7
100
AcDbLine
 10
163.1632302688432
 20
89.66600087142612
 30
0.0
 11
154.1636468198343
 21
94.85806824585512
 31
0.0
  0
LINE
  5
C6
330
1F
100
AcDbEntity
  8
Sichtbare_Kanten_TC_020513_DIN_
  6
Continuous
 62
     7
100
AcDbLine
 10
154.1636468198343
 20
94.85806824585512
 30
0.0
 11
145.1640633708242
 21
89.66600087142612
 31
0.0
  0
LINE
  5
C7
330
1F
100
AcDbEntity
  8
Sichtbare_Kanten_TC_020513_DIN_
  6
Continuous
 62
     7
100
AcDbLine
 10
154.1636468198343
 20
84.04100087142612
 30
0.0
 11
144.4136468198343
 21
89.66600087142612
 31
0.0
  0
LINE
  5
C8
330
1F
100
AcDbEntity
  8
Sichtbare_Kanten_TC_020513_DIN_
  6
Continuous
 62
     7
100
AcDbLine
 10
163.9136468198343
 20
89.66600087142612
 30
0.0
 11
154.1636468198343
 21
84.04100087142612
 31
0.0
  0
LINE
  5
C9
330
1F
100
AcDbEntity
  8
Sichtbare_Kanten_TC_020513_DIN_
  6
Continuous
 62
     7
100
AcDbLine
 10
154.1636468198343
 20
95.29100087142612
 30
0.0
 11
163.9136468198343
 21
89.66600087142612
 31
0.0
  0
LINE
  5
CA
330
1F
100
AcDbEntity
  8
Sichtbare_Kanten_TC_020513_DIN_
  6
Continuous
 62
     7
100
AcDbLine
 10
144.4136468198343
 20
89.66600087142612
 30
0.0
 11
154.1636468198343
 21
95.29100087142612
 31
0.0
  0
LINE
  5
CB
330
1F
100
AcDbEntity
  8
Sichtbare_Kanten_TC_020513_DIN_
  6
Continuous
 62
     7
100
AcDbLine
 10
150.7136468198343
 20
87.11383720967814
 30
0.0
 11
150.7136468198343
 21
92.21816453317413
 31
0.0
  0
LINE
  5
CC
330
1F
100
AcDbEntity
  8
Sichtbare_Kanten_TC_020513_DIN_
  6
Continuous
 62
     7
100
AcDbLine
 10
153.9762508997753
 20
85.01497915337214
 30
0.0
 11
150.9012508997754
 21
86.78901761491014
 31
0.0
  0
LINE
  5
CD
330
1F
100
AcDbEntity
  8
Sichtbare_Kanten_TC_020513_DIN_
  6
Continuous
 62
     7
100
AcDbLine
 10
151.4636468198343
 20
87.33042368140414
 30
0.0
 11
154.3510427398923
 21
85.66461834290814
 31
0.0
  0
LINE
  5
CE
330
1F
100
AcDbEntity
  8
Sichtbare_Kanten_TC_020513_DIN_
  6
Continuous
 62
     7
100
AcDbLine
 10
151.4636468198343
 20
92.21816453317413
 30
0.0
 11
151.4636468198343
 21
87.33042368140414
 31
0.0
  0
LINE
  5
CF
330
1F
100
AcDbEntity
  8
Sichtbare_Kanten_TC_020513_DIN_
  6
Continuous
 62
     7
100
AcDbLine
 10
155.2886468198343
 20
91.96958068511213
 30
0.0
 11
154.1636468198343
 21
90.41600087142612
 31
0.0
  0
LINE
  5
D0
330
1F
100
AcDbEntity
  8
Sichtbare_Kanten_TC_020513_DIN_
  6
Continuous
 62
     7
100
AcDbLine
 10
155.2886468198343
 20
86.20518336352512
 30
0.0
 11
155.2886468198343
 21
91.96958068511213
 31
0.0
  0
LINE
  5
D1
330
1F
100
AcDbEntity
  8
Sichtbare_Kanten_TC_020513_DIN_
  6
Continuous
 62
     7
100
AcDbLine
 10
156.0386468198343
 20
93.12681837932811
 30
0.0
 11
156.0386468198343
 21
86.20518336352512
 31
0.0
  0
LINE
  5
D2
330
1F
100
AcDbEntity
  8
Sichtbare_Kanten_TC_020513_DIN_
  6
Continuous
 62
     7
100
AcDbLine
 10
154.1636468198343
 20
91.69475638406712
 30
0.0
 11
155.3599179603433
 21
93.34675878014713
 31
0.0
  0
LINE
  5
D3
330
1F
100
AcDbEntity
  8
Sichtbare_Kanten_TC_020513_DIN_
  6
Continuous
 62
     7
100
AcDbLine
 10
152.9673756793244
 20
93.34675878014713
 30
0.0
 11
154.1636468198343
 21
91.69475638406712
 31
0.0
  0
LINE
  5
D4
330
1F
100
AcDbEntity
  8
Sichtbare_Kanten_TC_020513_DIN_
  6
Continuous
 62
     7
100
AcDbLine
 10
152.2886468198343
 20
87.97922182506312
 30
0.0
 11
152.2886468198343
 21
93.12681837932811
 31
0.0
  0
LINE
  5
D5
330
1F
100
AcDbEntity
  8
Sichtbare_Kanten_TC_020513_DIN_
  6
Continuous
 62
     7
100
AcDbLine
 10
153.0386468198343
 20
91.96958068511213
 30
0.0
 11
153.0386468198343
 21
87.97922182506312
 31
0.0
  0
LINE
  5
D6
330
1F
100
AcDbEntity
  8
Sichtbare_Kanten_TC_020513_DIN_
  6
Continuous
 62
     7
100
AcDbLine
 10
154.1636468198343
 20
90.41600087142612
 30
0.0
 11
153.0386468198343
 21
91.96958068511213
 31
0.0
  0
LINE
  5
D7
330
1F
100
AcDbEntity
  8
Mittelpunktmarkierung_TC_020513_DIN_
  6
DOT_CENTER
 62
     2
100
AcDbLine
 10
31.47180382512642
 20
93.24010449329904
 30
0.0
 11
31.47180382512642
 21
78.74010449329904
 31
0.0
  0
LINE
  5
D8
330
1F
100
AcDbEntity
  8
Mittelpunktmarkierung_TC_020513_DIN_
  6
DOT_CENTER
 62
     2
100
AcDbLine
 10
38.72180382512664
 20
85.99010449329904
 30
0.0
 11
24.22180382512653
 21
85.99010449329904
 31
0.0
  0
LINE
  5
D9
330
1F
100
AcDbEntity
  8
Mittelpunktmarkierung_TC_020513_DIN_
  6
DOT_CENTER
 62
     2
100
AcDbLine
 10
63.4718038251267
 20
93.24010449329904
 30
0.0
 11
63.4718038251267
 21
78.74010449329904
 31
0.0
  0
LINE
  5
DA
330
1F
100
AcDbEntity
  8
Mittelpunktmarkierung_TC_020513_DIN_
  6
DOT_CENTER
 62
     2
100
AcDbLine
 10
70.7218038251267
 20
85.99010449329904
 30
0.0
 11
56.2218038251267
 21
85.99010449329904
 31
0.0
  0
LINE
  5
DB
330
1F
100
AcDbEntity
  8
Mittelpunktmarkierung_TC_020513_DIN_
  6
DOT_CENTER
 62
     2
100
AcDbLine
 10
63.4718038251267
 20
163.240104493299
 30
0.0
 11
63.4718038251267
 21
148.740104493299
 31
0.0
  0
LINE
  5
DC
330
1F
100
AcDbEntity
  8
Mittelpunktmarkierung_TC_020513_DIN_
  6
DOT_CENTER
 62
     2
100
AcDbLine
 10
70.7218038251267
 20
155.990104493299
 30
0.0
 11
56.2218038251267
 21
155.990104493299
 31
0.0
  0
LINE
  5
DD
330
1F
100
AcDbEntity
  8
Mittelpunktmarkierung_TC_020513_DIN_
  6
DOT_CENTER
 62
     2
100
AcDbLine
 10
31.47180382512642
 20
163.240104493299
 30
0.0
 11
31.47180382512642
 21
148.740104493299
 31
0.0
  0
LINE
  5
DE
330
1F
100
AcDbEntity
  8
Mittelpunktmarkierung_TC_020513_DIN_
  6
DOT_CENTER
 62
     2
100
AcDbLine
 10
38.72180382512664
 20
155.990104493299
 30
0.0
 11
24.22180382512653
 21
155.990104493299
 31
0.0
  0
LINE
  5
DF
330
1F
100
AcDbEntity
  8
Mittellinie_TC_020513_DIN_
  6
DOT_CENTER
 62
     2
100
AcDbLine
 10
47.4718038251267
 20
89.99010449329904
 30
0.0
 11
47.4718038251267
 21
151.990104493299
 31
0.0
  0
LINE
  5
E0
330
1F
100
AcDbEntity
  8
Mittellinie_TC_020513_DIN_
  6
DOT_CENTER
 62
     2
100
AcDbLine
 10
24.97180382512664
 20
120.990104493299
 30
0.0
 11
69.9718038251267
 21
120.990104493299
 31
0.0
  0
LINE
  5
E1
330
1F
100
AcDbEntity
  8
Skizziergeometrie_TC_020513_DIN_
  6
Continuous
 62
     7
100
AcDbLine
 10
29.97180382512653
 20
94.99010449329904
 30
0.0
 11
29.9718038251267
 21
146.990104493299
 31
0.0
  0
LINE
  5
E2
330
1F
100
AcDbEntity
  8
Skizziergeometrie_TC_020513_DIN_
  6
Continuous
 62
     7
100
AcDbLine
 10
64.9718038251267
 20
94.99010449329903
 30
0.0
 11
29.97180382512653
 21
94.99010449329904
 31
0.0
  0
LINE
  5
E3
330
1F
100
AcDbEntity
  8
Skizziergeometrie_TC_020513_DIN_
  6
Continuous
 62
     7
100
AcDbLine
 10
64.9718038251267
 20
146.990104493299
 30
0.0
 11
64.9718038251267
 21
94.99010449329903
 31
0.0
  0
LINE
  5
E4
330
1F
100
AcDbEntity
  8
Skizziergeometrie_TC_020513_DIN_
  6
Continuous
 62
     7
100
AcDbLine
 10
29.9718038251267
 20
146.990104493299
 30
0.0
 11
64.9718038251267
 21
146.990104493299
 31
0.0
  0
LINE
  5
E5
330
1F
100
AcDbEntity
  8
0
  6
Continuous
 62
     7
100
AcDbLine
 10
260.0127481672151
 20
81.16600087142612
 30
0.0
 11
260.9136468686507
 21
81.16600087142612
 31
0.0
  0
LINE
  5
E6
330
1F
100
AcDbEntity
  8
0
  6
Continuous
 62
     7
100
AcDbLine
 10
255.9136468686507
 20
81.16600087142612
 30
0.0
 11
260.0127481672151
 21
81.16600087142612
 31
0.0
  0
LINE
  5
E7
330
1F
100
AcDbEntity
  8
0
  6
Continuous
 62
     7
100
AcDbLine
 10
260.9136468686507
 20
77.66600087142612
 30
0.0
 11
260.9136468686507
 21
81.16600087142612
 31
0.0
  0
LINE
  5
E8
330
1F
100
AcDbEntity
  8
0
  6
Continuous
 62
     7
100
AcDbLine
 10
220.4136468686509
 20
77.66600087142612
 30
0.0
 11
228.6636468686509
 21
77.66600087142612
 31
0.0
  0
LINE
  5
E9
330
1F
100
AcDbEntity
  8
0
  6
Continuous
 62
     7
100
AcDbLine
 10
228.6636468686509
 20
77.66600087142612
 30
0.0
 11
228.6636468686509
 21
81.16600087142612
 31
0.0
  0
LINE
  5
EA
330
1F
100
AcDbEntity
  8
0
  6
Continuous
 62
     7
100
AcDbLine
 10
247.6636468686507
 20
77.66600087142612
 30
0.0
 11
247.6636468686507
 21
81.16600087142612
 31
0.0
  0
LINE
  5
EB
330
1F
100
AcDbEntity
  8
0
  6
Continuous
 62
     7
100
AcDbLine
 10
247.6636468686507
 20
77.66600087142612
 30
0.0
 11
255.9136468686507
 21
77.66600087142612
 31
0.0
  0
LINE
  5
EC
330
1F
100
AcDbEntity
  8
0
  6
Continuous
 62
     7
100
AcDbLine
 10
228.6636468686509
 20
81.16600087142612
 30
0.0
 11
227.5185370865661
 21
81.16600087142612
 31
0.0
  0
LINE
  5
ED
330
1F
100
AcDbEntity
  8
0
  6
Continuous
 62
     7
100
AcDbLine
 10
248.8087566507355
 20
81.16600087142612
 30
0.0
 11
247.6636468686507
 21
81.16600087142612
 31
0.0
  0
LINE
  5
EE
330
1F
100
AcDbEntity
  8
0
  6
Continuous
 62
     7
100
AcDbLine
 10
248.8087566507355
 20
81.16600087142612
 30
0.0
 11
255.9136468686507
 21
81.16600087142612
 31
0.0
  0
LINE
  5
EF
330
1F
100
AcDbEntity
  8
0
  6
Continuous
 62
     7
100
AcDbLine
 10
259.977685720915
 20
83.17472707464475
 30
0.0
 11
260.0127481672151
 21
81.16600087142612
 31
0.0
  0
LINE
  5
F0
330
1F
100
AcDbEntity
  8
0
  6
Continuous
 62
     7
100
AcDbLine
 10
247.6636468686507
 20
77.66600087142612
 30
0.0
 11
228.6636468686509
 21
77.66600087142612
 31
0.0
  0
LINE
  5
F1
330
1F
100
AcDbEntity
  8
0
  6
Continuous
 62
     7
100
AcDbLine
 10
255.9136468686507
 20
77.66600087142612
 30
0.0
 11
260.9136468686507
 21
77.66600087142612
 31
0.0
  0
LINE
  5
F2
330
1F
100
AcDbEntity
  8
0
  6
Continuous
 62
     7
100
AcDbLine
 10
271.0271953645087
 20
119.3158487981835
 30
0.0
 11
270.9442916072532
 21
119.2599295078364
 31
0.0
  0
LINE
  5
F3
330
1F
100
AcDbEntity
  8
0
  6
Continuous
 62
     7
100
AcDbLine
 10
270.3516316524175
 20
120.0184996577646
 30
0.0
 11
270.4259461349653
 21
120.0854127184005
 31
0.0
  0
LINE
  5
F4
330
1F
100
AcDbEntity
  8
0
  6
Continuous
 62
     7
100
AcDbLine
 10
265.7122276728309
 20
108.4185501220701
 30
0.0
 11
265.7052520254564
 21
108.518306527096
 31
0.0
  0
LINE
  5
F5
330
1F
100
AcDbEntity
  8
0
  6
Continuous
 62
     7
100
AcDbLine
 10
268.4632861398449
 20
109.3091600831619
 30
0.0
 11
268.5102332961234
 21
109.220865323876
 31
0.0
  0
LINE
  5
F6
330
1F
100
AcDbEntity
  8
0
  6
Continuous
 62
     7
100
AcDbLine
 10
267.6180733599018
 20
108.8236501283873
 30
0.0
 11
267.5838713455693
 21
108.9176193904659
 31
0.0
  0
LINE
  5
F7
330
1F
100
AcDbEntity
  8
0
  6
Continuous
 62
     7
100
AcDbLine
 10
266.6585230232646
 20
108.6522800288255
 30
0.0
 11
266.6793141923464
 21
108.5544652687522
 31
0.0
  0
LINE
  5
F8
330
1F
100
AcDbEntity
  8
0
  6
Continuous
 62
     7
100
AcDbLine
 10
263.7239323566172
 20
110.9014984738878
 30
0.0
 11
265.2239323566254
 21
110.9014984738877
 31
0.0
  0
LINE
  5
F9
330
1F
100
AcDbEntity
  8
0
  6
Continuous
 62
     7
100
AcDbLine
 10
254.9784472248786
 20
83.66600087142612
 30
0.0
 11
248.6339396208767
 21
83.66600087142612
 31
0.0
  0
LINE
  5
FA
330
1F
100
AcDbEntity
  8
0
  6
Continuous
 62
     7
100
AcDbLine
 10
270.6612065565088
 20
111.1534342941412
 30
0.0
 11
270.7400076318694
 21
111.0918681466087
 31
0.0
  0
LINE
  5
FB
330
1F
100
AcDbEntity
  8
0
  6
Continuous
 62
     7
100
AcDbLine
 10
271.2239323566154
 20
111.9373968587545
 30
0.0
 11
271.2239323566154
 21
111.9941534663957
 31
0.0
  0
LINE
  5
FC
330
1F
100
AcDbEntity
  8
0
  6
Continuous
 62
     7
100
AcDbLine
 10
265.223932356622
 20
108.4014984738889
 30
0.0
 11
265.223932356622
 21
108.5014984738889
 31
0.0
  0
LINE
  5
FD
330
1F
100
AcDbEntity
  8
0
  6
Continuous
 62
     7
100
AcDbLine
 10
269.2796505974403
 20
109.8192812127013
 30
0.0
 11
269.3384291226695
 21
109.7383795132638
 31
0.0
  0
LINE
  5
FE
330
1F
100
AcDbEntity
  8
0
  6
Continuous
 62
     7
100
AcDbLine
 10
270.0170751127893
 20
110.4380538515516
 30
0.0
 11
270.0865409498352
 21
110.3661198715178
 31
0.0
  0
LINE
  5
FF
330
1F
100
AcDbEntity
  8
0
  6
Continuous
 62
     7
100
AcDbLine
 10
259.6636468686507
 20
101.1660008714264
 30
0.0
 11
259.6636468686507
 21
104.3788402613428
 31
0.0
  0
LINE
  5
100
330
1F
100
AcDbEntity
  8
0
  6
Continuous
 62
     7
100
AcDbLine
 10
241.6200632149333
 20
91.32498356182379
 30
0.0
 11
265.223932356622
 21
108.4014984738889
 31
0.0
  0
LINE
  5
101
330
1F
100
AcDbEntity
  8
0
  6
Continuous
 62
     7
100
AcDbLine
 10
247.6636468686507
 20
81.16600087142612
 30
0.0
 11
228.6636468686509
 21
81.16600087142612
 31
0.0
  0
LINE
  5
102
330
1F
100
AcDbEntity
  8
0
  6
Continuous
 62
     7
100
AcDbLine
 10
248.8087566507355
 20
81.16600087142612
 30
0.0
 11
248.668292831277
 21
83.17472707464475
 31
0.0
  0
LINE
  5
103
330
1F
100
AcDbEntity
  8
0
  6
Continuous
 62
     7
100
AcDbLine
 10
254.9784472248786
 20
83.66600087142612
 30
0.0
 11
259.4777618820382
 21
83.66600087142612
 31
0.0
  0
LINE
  5
104
330
1F
100
AcDbEntity
  8
0
  6
Continuous
 62
     7
100
AcDbLine
 10
227.6590009060245
 20
83.17472707464475
 30
0.0
 11
227.5185370865661
 21
81.16600087142612
 31
0.0
  0
LINE
  5
105
330
1F
100
AcDbEntity
  8
0
  6
Continuous
 62
     7
100
AcDbLine
 10
259.6636468686507
 20
101.1660008714264
 30
0.0
 11
259.977685720915
 21
83.17472707464475
 31
0.0
  0
LINE
  5
106
330
1F
100
AcDbEntity
  8
0
  6
Continuous
 62
     7
100
AcDbLine
 10
227.6933541164249
 20
83.66600087142612
 30
0.0
 11
221.3488465066298
 21
83.66600087142612
 31
0.0
  0
LINE
  5
107
330
1F
100
AcDbEntity
  8
0
  6
Continuous
 62
     7
100
AcDbLine
 10
227.6590009060245
 20
83.17472707464475
 30
0.0
 11
227.6933541164249
 21
83.66600087142612
 31
0.0
  0
LINE
  5
108
330
1F
100
AcDbEntity
  8
0
  6
Continuous
 62
     7
100
AcDbLine
 10
216.8495318601711
 20
83.66600087142612
 30
0.0
 11
221.3488465066298
 21
83.66600087142612
 31
0.0
  0
LINE
  5
109
330
1F
100
AcDbEntity
  8
0
  6
Continuous
 62
     7
100
AcDbLine
 10
248.668292831277
 20
83.17472707464475
 30
0.0
 11
248.6339396208767
 21
83.66600087142612
 31
0.0
  0
LINE
  5
10A
330
1F
100
AcDbEntity
  8
0
  6
Continuous
 62
     7
100
AcDbLine
 10
239.5127990989546
 20
95.15741044038327
 30
0.0
 11
239.4893311903307
 21
94.48537746501177
 31
0.0
  0
LINE
  5
10B
330
1F
100
AcDbEntity
  8
0
  6
Continuous
 62
     7
100
AcDbLine
 10
272.5237611217377
 20
115.4514984738916
 30
0.0
 11
272.2237537829166
 21
115.4514984738917
 31
0.0
  0
LINE
  5
10C
330
1F
100
AcDbEntity
  8
0
  6
Continuous
 62
     7
100
AcDbLine
 10
272.4618533288357
 20
116.3514984738915
 30
0.0
 11
272.0582209077448
 21
116.3514984738917
 31
0.0
  0
LINE
  5
10D
330
1F
100
AcDbEntity
  8
0
  6
Continuous
 62
     7
100
AcDbLine
 10
272.2856247883286
 20
113.5514984738919
 30
0.0
 11
271.9750433763003
 21
113.5514984738917
 31
0.0
  0
LINE
  5
10E
330
1F
100
AcDbEntity
  8
0
  6
Continuous
 62
     7
100
AcDbLine
 10
265.2239323566265
 20
119.9014984738877
 30
0.0
 11
263.7239323566183
 21
119.901498473888
 31
0.0
  0
LINE
  5
10F
330
1F
100
AcDbEntity
  8
0
  6
Continuous
 62
     7
100
AcDbLine
 10
262.7239323566181
 20
118.9014984738881
 30
0.0
 11
262.7239323566174
 21
111.901498473888
 31
0.0
  0
LINE
  5
110
330
1F
100
AcDbEntity
  8
0
  6
Continuous
 62
     7
100
AcDbLine
 10
232.423932356625
 20
122.4014984738927
 30
0.0
 11
265.2239323566236
 21
122.401498473889
 31
0.0
  0
LINE
  5
111
330
1F
100
AcDbEntity
  8
0
  6
Continuous
 62
     7
100
AcDbLine
 10
265.2239323566236
 20
122.401498473889
 30
0.0
 11
265.2239323566236
 21
122.301498473889
 31
0.0
  0
LINE
  5
112
330
1F
100
AcDbEntity
  8
0
  6
Continuous
 62
     7
100
AcDbLine
 10
266.184226753248
 20
122.2343481482057
 30
0.0
 11
266.1981440633439
 21
122.3333749550798
 31
0.0
  0
LINE
  5
113
330
1F
100
AcDbEntity
  8
0
  6
Continuous
 62
     7
100
AcDbLine
 10
267.1258301117611
 20
122.0342041758631
 30
0.0
 11
267.1533938473425
 21
122.130330345457
 31
0.0
  0
LINE
  5
114
330
1F
100
AcDbEntity
  8
0
  6
Continuous
 62
     7
100
AcDbLine
 10
268.0710888581542
 20
121.7963166773869
 30
0.0
 11
268.0304151938466
 21
121.7049621316226
 31
0.0
  0
LINE
  5
115
330
1F
100
AcDbEntity
  8
0
  6
Continuous
 62
     7
100
AcDbLine
 10
268.8803752798325
 20
121.2530303373679
 30
0.0
 11
268.9333672062559
 21
121.3378351469835
 31
0.0
  0
LINE
  5
116
330
1F
100
AcDbEntity
  8
0
  6
Continuous
 62
     7
100
AcDbLine
 10
269.6591668634607
 20
120.6872051314093
 30
0.0
 11
269.7234456244293
 21
120.7638095757213
 31
0.0
  0
LINE
  5
117
330
1F
100
AcDbEntity
  8
0
  6
Continuous
 62
     7
100
AcDbLine
 10
271.487118446783
 20
119.1514984738923
 30
0.0
 11
271.1347275653887
 21
119.151498473893
 31
0.0
  0
LINE
  5
118
330
1F
100
AcDbEntity
  8
0
  6
Continuous
 62
     7
100
AcDbLine
 10
271.4256112760874
 20
118.426259386733
 30
0.0
 11
271.5154906807173
 21
118.4700965014118
 31
0.0
  0
LINE
  5
119
330
1F
100
AcDbEntity
  8
0
  6
Continuous
 62
     7
100
AcDbLine
 10
271.9446094058482
 20
118.2514984738918
 30
0.0
 11
271.5078403763172
 21
118.2514984738924
 31
0.0
  0
LINE
  5
11A
330
1F
100
AcDbEntity
  8
0
  6
Continuous
 62
     7
100
AcDbLine
 10
271.7862223190597
 20
117.5337157350753
 30
0.0
 11
271.8813279706891
 21
117.5646174345129
 31
0.0
  0
LINE
  5
11B
330
1F
100
AcDbEntity
  8
0
  6
Continuous
 62
     7
100
AcDbLine
 10
272.1175866277084
 20
116.6170357175567
 30
0.0
 11
272.0191058524071
 21
116.5996708997899
 31
0.0
  0
LINE
  5
11C
330
1F
100
AcDbEntity
  8
0
  6
Continuous
 62
     7
100
AcDbLine
 10
272.1197290630547
 20
115.6423050011354
 30
0.0
 11
272.2196681457566
 21
115.6457949508057
 31
0.0
  0
LINE
  5
11D
330
1F
100
AcDbEntity
  8
0
  6
Continuous
 62
     7
100
AcDbLine
 10
272.1855856242006
 20
114.6697992310146
 30
0.0
 11
272.0861334346638
 21
114.6802520773413
 31
0.0
  0
LINE
  5
11E
330
1F
100
AcDbEntity
  8
0
  6
Continuous
 62
     7
100
AcDbLine
 10
271.918972867927
 20
113.7322373942504
 30
0.0
 11
272.0160024405546
 21
113.7080452046905
 31
0.0
  0
LINE
  5
11F
330
1F
100
AcDbEntity
  8
0
  6
Continuous
 62
     7
100
AcDbLine
 10
271.9861435334509
 20
112.6514984738925
 30
0.0
 11
271.5522417675173
 21
112.6514984738919
 31
0.0
  0
LINE
  5
120
330
1F
100
AcDbEntity
  8
0
  6
Continuous
 62
     7
100
AcDbLine
 10
271.4871184467869
 20
111.6514984738923
 30
0.0
 11
271.1347275653931
 21
111.6514984738919
 31
0.0
  0
LINE
  5
121
330
1F
100
AcDbEntity
  8
0
  6
Continuous
 62
     7
100
AcDbLine
 10
271.1995076427351
 20
111.9514984738882
 30
0.0
 11
271.2239323566154
 21
111.9373968587545
 31
0.0
  0
LINE
  5
122
330
1F
100
AcDbEntity
  8
0
  6
Continuous
 62
     7
100
AcDbLine
 10
271.2239323566154
 20
111.9373968587545
 30
0.0
 11
271.2861101831135
 21
111.9014984738882
 31
0.0
  0
LINE
  5
123
330
1F
100
AcDbEntity
  8
0
  6
Continuous
 62
     7
100
AcDbLine
 10
271.7142193385902
 20
112.7792523199768
 30
0.0
 11
271.6215009531333
 21
112.8167129793184
 31
0.0
  0
LINE
  5
124
330
1F
100
AcDbEntity
  8
0
  6
Continuous
 62
     7
100
AcDbLine
 10
215.4136468686509
 20
81.16600087142612
 30
0.0
 11
216.3145455700865
 21
81.16600087142612
 31
0.0
  0
LINE
  5
125
330
1F
100
AcDbEntity
  8
0
  6
Continuous
 62
     7
100
AcDbLine
 10
216.3145455700865
 20
81.16600087142612
 30
0.0
 11
220.4136468686509
 21
81.16600087142612
 31
0.0
  0
LINE
  5
126
330
1F
100
AcDbEntity
  8
0
  6
Continuous
 62
     7
100
AcDbLine
 10
215.4136468686509
 20
77.66600087142612
 30
0.0
 11
215.4136468686509
 21
81.16600087142612
 31
0.0
  0
LINE
  5
127
330
1F
100
AcDbEntity
  8
0
  6
Continuous
 62
     7
100
AcDbLine
 10
216.3145455700865
 20
81.16600087142612
 30
0.0
 11
216.3496080163859
 21
83.17472707460232
 31
0.0
  0
LINE
  5
128
330
1F
100
AcDbEntity
  8
0
  6
Continuous
 62
     7
100
AcDbLine
 10
216.3496080163859
 20
83.17472707460232
 30
0.0
 11
216.6636468686509
 21
101.1660008714261
 31
0.0
  0
LINE
  5
129
330
1F
100
AcDbEntity
  8
0
  6
Continuous
 62
     7
100
AcDbLine
 10
220.4136468686509
 20
81.16600087142612
 30
0.0
 11
227.5185370865661
 21
81.16600087142612
 31
0.0
  0
LINE
  5
12A
330
1F
100
AcDbEntity
  8
0
  6
Continuous
 62
     7
100
AcDbLine
 10
215.4136468686509
 20
77.66600087142612
 30
0.0
 11
220.4136468686509
 21
77.66600087142612
 31
0.0
  0
LINE
  5
12B
330
1F
100
AcDbEntity
  8
0
  6
Continuous
 62
     7
100
AcDbLine
 10
230.9239323566277
 20
116.9195163560139
 30
0.0
 11
230.9239323566279
 21
118.4014984738915
 31
0.0
  0
LINE
  5
12C
330
1F
100
AcDbEntity
  8
0
  6
Continuous
 62
     7
100
AcDbLine
 10
228.4239323566245
 20
116.1014984738942
 30
0.0
 11
228.4239323566245
 21
118.4014984738927
 31
0.0
  0
LINE
  5
12D
330
1F
100
AcDbEntity
  8
0
  6
Continuous
 62
     7
100
AcDbLine
 10
233.9861100070553
 20
113.2576589323476
 30
0.0
 11
233.7290899497452
 21
113.1029311386506
 31
0.0
  0
LINE
  5
12E
330
1F
100
AcDbEntity
  8
0
  6
Continuous
 62
     7
100
AcDbLine
 10
239.3486471313914
 20
106.8860683289176
 30
0.0
 11
237.479194646509
 21
112.0223468178756
 31
0.0
  0
LINE
  5
12F
330
1F
100
AcDbEntity
  8
0
  6
Continuous
 62
     7
100
AcDbLine
 10
246.9564080737288
 20
106.8636378061299
 30
0.0
 11
238.7586426497493
 21
115.4025356587583
 31
0.0
  0
LINE
  5
130
330
1F
100
AcDbEntity
  8
0
  6
Continuous
 62
     7
100
AcDbLine
 10
232.4239323566279
 20
119.9014984738915
 30
0.0
 11
252.8572335109531
 21
119.9014984738892
 31
0.0
  0
LINE
  5
131
330
1F
100
AcDbEntity
  8
0
  6
Continuous
 62
     7
100
AcDbLine
 10
223.6625807347456
 20
101.1660008714261
 30
0.0
 11
230.7371364064649
 21
101.1660008714261
 31
0.0
  0
LINE
  5
132
330
1F
100
AcDbEntity
  8
0
  6
Continuous
 62
     7
100
AcDbLine
 10
223.6625807347456
 20
106.6660008714261
 30
0.0
 11
239.4102209840329
 21
106.6660008714261
 31
0.0
  0
LINE
  5
133
330
1F
100
AcDbEntity
  8
0
  6
Continuous
 62
     7
100
AcDbLine
 10
216.6636468686509
 20
101.1660008714261
 30
0.0
 11
216.6636468686509
 21
106.6660008714261
 31
0.0
  0
LINE
  5
134
330
1F
100
AcDbEntity
  8
0
  6
Continuous
 62
     7
100
AcDbLine
 10
216.6636468686509
 20
106.6660008714261
 30
0.0
 11
223.6625807347456
 21
106.6660008714261
 31
0.0
  0
LINE
  5
135
330
1F
100
AcDbEntity
  8
0
  6
Continuous
 62
     7
100
AcDbLine
 10
195.4136468198343
 20
81.16600087142612
 30
0.0
 11
194.132464222442
 21
81.16600087142612
 31
0.0
  0
LINE
  5
136
330
1F
100
AcDbEntity
  8
0
  6
Continuous
 62
     7
100
AcDbLine
 10
195.4136468198343
 20
77.66600087142612
 30
0.0
 11
195.4136468198343
 21
81.16600087142612
 31
0.0
  0
LINE
  5
137
330
1F
100
AcDbEntity
  8
0
  6
Continuous
 62
     7
100
AcDbLine
 10
191.6586468198343
 20
122.401498473889
 30
0.0
 11
191.6586468198343
 21
122.3333749550798
 31
0.0
  0
LINE
  5
138
330
1F
100
AcDbEntity
  8
0
  6
Continuous
 62
     7
100
AcDbLine
 10
191.6586468198343
 20
122.0342041758631
 30
0.0
 11
191.6586468198343
 21
122.130330345457
 31
0.0
  0
LINE
  5
139
330
1F
100
AcDbEntity
  8
0
  6
Continuous
 62
     7
100
AcDbLine
 10
191.6586468198343
 20
120.7638095757213
 30
0.0
 11
191.6586468198343
 21
120.0854127184005
 31
0.0
  0
LINE
  5
13A
330
1F
100
AcDbEntity
  8
0
  6
Continuous
 62
     7
100
AcDbLine
 10
191.6586468198343
 20
121.2530303373679
 30
0.0
 11
191.6586468198343
 21
120.7638095757213
 31
0.0
  0
LINE
  5
13B
330
1F
100
AcDbEntity
  8
0
  6
Continuous
 62
     7
100
AcDbLine
 10
191.6586468198343
 20
121.2530303373679
 30
0.0
 11
191.6586468198343
 21
121.3378351469835
 31
0.0
  0
LINE
  5
13C
330
1F
100
AcDbEntity
  8
0
  6
Continuous
 62
     7
100
AcDbLine
 10
191.6586468198343
 20
121.7963166773869
 30
0.0
 11
191.6586468198343
 21
121.3378351469835
 31
0.0
  0
LINE
  5
13D
330
1F
100
AcDbEntity
  8
0
  6
Continuous
 62
     7
100
AcDbLine
 10
191.6586468198343
 20
122.0342041758631
 30
0.0
 11
191.6586468198343
 21
121.7963166773869
 31
0.0
  0
LINE
  5
13E
330
1F
100
AcDbEntity
  8
0
  6
Continuous
 62
     7
100
AcDbLine
 10
191.6586468198343
 20
120.0184996577646
 30
0.0
 11
191.6586468198343
 21
120.0854127184005
 31
0.0
  0
LINE
  5
13F
330
1F
100
AcDbEntity
  8
0
  6
Continuous
 62
     7
100
AcDbLine
 10
191.6586468198343
 20
118.426259386733
 30
0.0
 11
191.6586468198343
 21
118.4700965014118
 31
0.0
  0
LINE
  5
140
330
1F
100
AcDbEntity
  8
0
  6
Continuous
 62
     7
100
AcDbLine
 10
191.6586468198343
 20
117.5646174345129
 30
0.0
 11
191.6586468198343
 21
116.6170357175567
 31
0.0
  0
LINE
  5
141
330
1F
100
AcDbEntity
  8
0
  6
Continuous
 62
     7
100
AcDbLine
 10
191.6586468198343
 20
116.6170357175567
 30
0.0
 11
191.6586468198343
 21
116.5996708997899
 31
0.0
  0
LINE
  5
142
330
1F
100
AcDbEntity
  8
0
  6
Continuous
 62
     7
100
AcDbLine
 10
191.6586468198343
 20
115.6457949508056
 30
0.0
 11
191.6586468198343
 21
114.6697992310145
 31
0.0
  0
LINE
  5
143
330
1F
100
AcDbEntity
  8
0
  6
Continuous
 62
     7
100
AcDbLine
 10
191.6586468198343
 20
116.5996708997899
 30
0.0
 11
191.6586468198343
 21
115.6457949508056
 31
0.0
  0
LINE
  5
144
330
1F
100
AcDbEntity
  8
0
  6
Continuous
 62
     7
100
AcDbLine
 10
191.6586468198343
 20
113.7080452046905
 30
0.0
 11
191.6586468198343
 21
112.7792523199768
 31
0.0
  0
LINE
  5
145
330
1F
100
AcDbEntity
  8
0
  6
Continuous
 62
     7
100
AcDbLine
 10
191.6586468198343
 20
113.7322373942504
 30
0.0
 11
191.6586468198343
 21
113.7080452046905
 31
0.0
  0
LINE
  5
146
330
1F
100
AcDbEntity
  8
0
  6
Continuous
 62
     7
100
AcDbLine
 10
191.6586468198343
 20
112.7792523199768
 30
0.0
 11
191.6586468198343
 21
111.9514984738882
 31
0.0
  0
LINE
  5
147
330
1F
100
AcDbEntity
  8
0
  6
Continuous
 62
     7
100
AcDbLine
 10
191.6586468198343
 20
111.9514984738882
 30
0.0
 11
191.6586468198343
 21
111.9014984738882
 31
0.0
  0
LINE
  5
148
330
1F
100
AcDbEntity
  8
0
  6
Continuous
 62
     7
100
AcDbLine
 10
191.6586468198343
 20
110.3661198715178
 30
0.0
 11
191.6586468198343
 21
109.7383795132638
 31
0.0
  0
LINE
  5
149
330
1F
100
AcDbEntity
  8
0
  6
Continuous
 62
     7
100
AcDbLine
 10
191.6586468198343
 20
91.32498356182367
 30
0.0
 11
191.6586468198343
 21
108.4014984738889
 31
0.0
  0
LINE
  5
14A
330
1F
100
AcDbEntity
  8
0
  6
Continuous
 62
     7
100
AcDbLine
 10
191.6586468198343
 20
109.3091600831619
 30
0.0
 11
191.6586468198343
 21
109.220865323876
 31
0.0
  0
LINE
  5
14B
330
1F
100
AcDbEntity
  8
0
  6
Continuous
 62
     7
100
AcDbLine
 10
191.6586468198343
 20
110.4380538515516
 30
0.0
 11
191.6586468198343
 21
110.3661198715178
 31
0.0
  0
LINE
  5
14C
330
1F
100
AcDbEntity
  8
0
  6
Continuous
 62
     7
100
AcDbLine
 10
191.6586468198343
 20
114.6697992310145
 30
0.0
 11
191.6586468198343
 21
113.7322373942504
 31
0.0
  0
LINE
  5
14D
330
1F
100
AcDbEntity
  8
0
  6
Continuous
 62
     7
100
AcDbLine
 10
191.6586468198343
 20
118.426259386733
 30
0.0
 11
191.6586468198343
 21
117.5646174345129
 31
0.0
  0
LINE
  5
14E
330
1F
100
AcDbEntity
  8
0
  6
Continuous
 62
     7
100
AcDbLine
 10
194.132464222442
 20
81.16600087142612
 30
0.0
 11
194.0974017761448
 21
83.1747270744732
 31
0.0
  0
LINE
  5
14F
330
1F
100
AcDbEntity
  8
0
  6
Continuous
 62
     7
100
AcDbLine
 10
194.132464222442
 20
81.16600087142612
 30
0.0
 11
190.4136468198343
 21
81.16600087142612
 31
0.0
  0
LINE
  5
150
330
1F
100
AcDbEntity
  8
0
  6
Continuous
 62
     7
100
AcDbLine
 10
187.2278178922903
 20
111.9941534663957
 30
0.0
 11
163.8394757473784
 21
111.9941534663957
 31
0.0
  0
LINE
  5
151
330
1F
100
AcDbEntity
  8
0
  6
Continuous
 62
     7
100
AcDbLine
 10
161.6734525904888
 20
111.9514984738881
 30
0.0
 11
163.9327268525605
 21
111.9514984738882
 31
0.0
  0
LINE
  5
152
330
1F
100
AcDbEntity
  8
0
  6
Continuous
 62
     7
100
AcDbLine
 10
191.6586468198343
 20
120.0184996577646
 30
0.0
 11
161.6734525904888
 21
120.0184996577646
 31
0.0
  0
LINE
  5
153
330
1F
100
AcDbEntity
  8
0
  6
Continuous
 62
     7
100
AcDbLine
 10
184.1589514539088
 20
101.1485483969842
 30
0.0
 11
184.1586468198343
 21
101.1660008714261
 31
0.0
  0
LINE
  5
154
330
1F
100
AcDbEntity
  8
0
  6
Continuous
 62
     7
100
AcDbLine
 10
187.1345667871082
 20
111.9514984738882
 30
0.0
 11
191.6586468198343
 21
111.9514984738882
 31
0.0
  0
LINE
  5
155
330
1F
100
AcDbEntity
  8
0
  6
Continuous
 62
     7
100
AcDbLine
 10
191.6586468198343
 20
111.9014984738882
 30
0.0
 11
191.6586468198343
 21
111.0918681466087
 31
0.0
  0
LINE
  5
156
330
1F
100
AcDbEntity
  8
0
  6
Continuous
 62
     7
100
AcDbLine
 10
184.4641104560781
 20
83.66600087142612
 30
0.0
 11
184.2985919721482
 21
93.14854846495084
 31
0.0
  0
LINE
  5
157
330
1F
100
AcDbEntity
  8
0
  6
Continuous
 62
     7
100
AcDbLine
 10
189.1332257466601
 20
81.16600087142612
 30
0.0
 11
190.4136468198343
 21
81.16600087142612
 31
0.0
  0
LINE
  5
158
330
1F
100
AcDbEntity
  8
0
  6
Continuous
 62
     7
100
AcDbLine
 10
119.1840678930086
 20
81.16600087142612
 30
0.0
 11
189.1332257466601
 21
81.16600087142612
 31
0.0
  0
LINE
  5
159
330
1F
100
AcDbEntity
  8
0
  6
Continuous
 62
     7
100
AcDbLine
 10
112.9136468198343
 20
77.66600087142612
 30
0.0
 11
195.4136468198343
 21
77.66600087142612
 31
0.0
  0
LINE
  5
15A
330
1F
100
AcDbEntity
  8
0
  6
Continuous
 62
     7
100
AcDbLine
 10
112.9136468198343
 20
77.66600087142612
 30
0.0
 11
112.9136468198343
 21
81.16600087142612
 31
0.0
  0
LINE
  5
15B
330
1F
100
AcDbEntity
  8
0
  6
Continuous
 62
     7
100
AcDbLine
 10
117.9136468198343
 20
81.16600087142612
 30
0.0
 11
114.1848294172266
 21
81.16600087142612
 31
0.0
  0
LINE
  5
15C
330
1F
100
AcDbEntity
  8
0
  6
Continuous
 62
     7
100
AcDbLine
 10
114.1848294172266
 20
81.16600087142612
 30
0.0
 11
112.9136468198343
 21
81.16600087142612
 31
0.0
  0
LINE
  5
15D
330
1F
100
AcDbEntity
  8
0
  6
Continuous
 62
     7
100
AcDbLine
 10
184.4641104560781
 20
83.66600087142612
 30
0.0
 11
180.0415564959251
 21
83.66600087142612
 31
0.0
  0
LINE
  5
15E
330
1F
100
AcDbEntity
  8
0
  6
Continuous
 62
     7
100
AcDbLine
 10
193.5974779285635
 20
83.66600087142612
 30
0.0
 11
189.0981632801055
 21
83.66600087142612
 31
0.0
  0
LINE
  5
15F
330
1F
100
AcDbEntity
  8
0
  6
Continuous
 62
     7
100
AcDbLine
 10
189.0981632801055
 20
83.66600087142612
 30
0.0
 11
184.4641104560781
 21
83.66600087142612
 31
0.0
  0
LINE
  5
160
330
1F
100
AcDbEntity
  8
0
  6
Continuous
 62
     7
100
AcDbLine
 10
191.6586468198343
 20
111.0918681466087
 30
0.0
 11
191.6586468198343
 21
110.4380538515516
 31
0.0
  0
LINE
  5
161
330
1F
100
AcDbEntity
  8
0
  6
Continuous
 62
     7
100
AcDbLine
 10
161.6734525904888
 20
110.4380538515516
 30
0.0
 11
191.6586468198343
 21
110.4380538515516
 31
0.0
  0
LINE
  5
162
330
1F
100
AcDbEntity
  8
0
  6
Continuous
 62
     7
100
AcDbLine
 10
161.6734525904888
 20
111.0918681466087
 30
0.0
 11
191.6586468198343
 21
111.0918681466087
 31
0.0
  0
LINE
  5
163
330
1F
100
AcDbEntity
  8
0
  6
Continuous
 62
     7
100
AcDbLine
 10
116.6586468198343
 20
122.401498473889
 30
0.0
 11
191.6586468198343
 21
122.401498473889
 31
0.0
  0
LINE
  5
164
330
1F
100
AcDbEntity
  8
0
  6
Continuous
 62
     7
100
AcDbLine
 10
116.6586468198343
 20
122.3333749550798
 30
0.0
 11
191.6586468198343
 21
122.3333749550798
 31
0.0
  0
LINE
  5
165
330
1F
100
AcDbEntity
  8
0
  6
Continuous
 62
     7
100
AcDbLine
 10
191.6586468198343
 20
122.3333749550798
 30
0.0
 11
191.6586468198343
 21
122.130330345457
 31
0.0
  0
LINE
  5
166
330
1F
100
AcDbEntity
  8
0
  6
Continuous
 62
     7
100
AcDbLine
 10
116.6586468198343
 20
122.3333749550798
 30
0.0
 11
116.6586468198343
 21
122.130330345457
 31
0.0
  0
LINE
  5
167
330
1F
100
AcDbEntity
  8
0
  6
Continuous
 62
     7
100
AcDbLine
 10
116.6586468198343
 20
120.7638095757213
 30
0.0
 11
191.6586468198343
 21
120.7638095757213
 31
0.0
  0
LINE
  5
168
330
1F
100
AcDbEntity
  8
0
  6
Continuous
 62
     7
100
AcDbLine
 10
116.6586468198343
 20
120.7638095757213
 30
0.0
 11
116.6586468198343
 21
120.0854127184005
 31
0.0
  0
LINE
  5
169
330
1F
100
AcDbEntity
  8
0
  6
Continuous
 62
     7
100
AcDbLine
 10
161.6734525904888
 20
120.0854127184058
 30
0.0
 11
146.6438410491797
 21
120.0854127184059
 31
0.0
  0
LINE
  5
16A
330
1F
100
AcDbEntity
  8
0
  6
Continuous
 62
     7
100
AcDbLine
 10
116.6586468198343
 20
121.2530303373679
 30
0.0
 11
116.6586468198343
 21
121.3378351469835
 31
0.0
  0
LINE
  5
16B
330
1F
100
AcDbEntity
  8
0
  6
Continuous
 62
     7
100
AcDbLine
 10
116.6586468198343
 20
121.2530303373679
 30
0.0
 11
116.6586468198343
 21
120.7638095757213
 31
0.0
  0
LINE
  5
16C
330
1F
100
AcDbEntity
  8
0
  6
Continuous
 62
     7
100
AcDbLine
 10
191.6586468198343
 20
121.2530303373679
 30
0.0
 11
116.6586468198343
 21
121.2530303373679
 31
0.0
  0
LINE
  5
16D
330
1F
100
AcDbEntity
  8
0
  6
Continuous
 62
     7
100
AcDbLine
 10
116.6586468198343
 20
121.7963166773869
 30
0.0
 11
116.6586468198343
 21
121.3378351469835
 31
0.0
  0
LINE
  5
16E
330
1F
100
AcDbEntity
  8
0
  6
Continuous
 62
     7
100
AcDbLine
 10
116.6586468198343
 20
121.7963166773869
 30
0.0
 11
191.6586468198343
 21
121.7963166773869
 31
0.0
  0
LINE
  5
16F
330
1F
100
AcDbEntity
  8
0
  6
Continuous
 62
     7
100
AcDbLine
 10
116.6586468198343
 20
121.3378351469835
 30
0.0
 11
191.6586468198343
 21
121.3378351469835
 31
0.0
  0
LINE
  5
170
330
1F
100
AcDbEntity
  8
0
  6
Continuous
 62
     7
100
AcDbLine
 10
116.6586468198343
 20
122.0342041758631
 30
0.0
 11
116.6586468198343
 21
121.7963166773869
 31
0.0
  0
LINE
  5
171
330
1F
100
AcDbEntity
  8
0
  6
Continuous
 62
     7
100
AcDbLine
 10
191.6586468198343
 20
120.0854127184005
 30
0.0
 11
161.6734525904888
 21
120.0854127184058
 31
0.0
  0
LINE
  5
172
330
1F
100
AcDbEntity
  8
0
  6
Continuous
 62
     7
100
AcDbLine
 10
161.6734525904888
 20
120.0184996577646
 30
0.0
 11
161.6734525904888
 21
120.0854127184058
 31
0.0
  0
LINE
  5
173
330
1F
100
AcDbEntity
  8
0
  6
Continuous
 62
     7
100
AcDbLine
 10
116.6586468198343
 20
120.0184996577646
 30
0.0
 11
116.6586468198343
 21
120.0854127184005
 31
0.0
  0
LINE
  5
174
330
1F
100
AcDbEntity
  8
0
  6
Continuous
 62
     7
100
AcDbLine
 10
191.6586468198343
 20
109.220865323876
 30
0.0
 11
116.6586468198343
 21
109.220865323876
 31
0.0
  0
LINE
  5
175
330
1F
100
AcDbEntity
  8
0
  6
Continuous
 62
     7
100
AcDbLine
 10
116.6586468198343
 20
108.8236501283873
 30
0.0
 11
191.6586468198343
 21
108.8236501283872
 31
0.0
  0
LINE
  5
176
330
1F
100
AcDbEntity
  8
0
  6
Continuous
 62
     7
100
AcDbLine
 10
161.6734525904888
 20
119.3158487981835
 30
0.0
 11
161.6734525904888
 21
118.4700965014118
 31
0.0
  0
LINE
  5
177
330
1F
100
AcDbEntity
  8
0
  6
Continuous
 62
     7
100
AcDbLine
 10
161.6734525904888
 20
118.4700965014118
 30
0.0
 11
191.6586468198343
 21
118.4700965014118
 31
0.0
  0
LINE
  5
178
330
1F
100
AcDbEntity
  8
0
  6
Continuous
 62
     7
100
AcDbLine
 10
161.6734525904888
 20
118.426259386733
 30
0.0
 11
161.6734525904888
 21
118.4700965014118
 31
0.0
  0
LINE
  5
179
330
1F
100
AcDbEntity
  8
0
  6
Continuous
 62
     7
100
AcDbLine
 10
161.6734525904888
 20
119.3158487981835
 30
0.0
 11
191.6586468198343
 21
119.3158487981835
 31
0.0
  0
LINE
  5
17A
330
1F
100
AcDbEntity
  8
0
  6
Continuous
 62
     7
100
AcDbLine
 10
191.6586468198343
 20
119.3158487981835
 30
0.0
 11
191.6586468198343
 21
118.4700965014118
 31
0.0
  0
LINE
  5
17B
330
1F
100
AcDbEntity
  8
0
  6
Continuous
 62
     7
100
AcDbLine
 10
191.6586468198343
 20
120.0184996577646
 30
0.0
 11
191.6586468198343
 21
119.3158487981835
 31
0.0
  0
LINE
  5
17C
330
1F
100
AcDbEntity
  8
0
  6
Continuous
 62
     7
100
AcDbLine
 10
147.7211913183704
 20
111.6514984738925
 30
0.0
 11
147.1438410491802
 21
111.6514984738922
 31
0.0
  0
LINE
  5
17D
330
1F
100
AcDbEntity
  8
0
  6
Continuous
 62
     7
100
AcDbLine
 10
161.1734525904886
 20
111.6514984738925
 30
0.0
 11
157.0742656792423
 21
111.6514984738925
 31
0.0
  0
LINE
  5
17E
330
1F
100
AcDbEntity
  8
0
  6
Continuous
 62
     7
100
AcDbLine
 10
161.1734525904882
 20
115.3514984738932
 30
0.0
 11
158.9795215675673
 21
119.1514984738923
 31
0.0
  0
LINE
  5
17F
330
1F
100
AcDbEntity
  8
0
  6
Continuous
 62
     7
100
AcDbLine
 10
161.1734525904882
 20
115.3514984738932
 30
0.0
 11
161.1734525904881
 21
117.2514984738929
 31
0.0
  0
LINE
  5
180
330
1F
100
AcDbEntity
  8
0
  6
Continuous
 62
     7
100
AcDbLine
 10
152.9750787679965
 20
111.651498473893
 30
0.0
 11
151.4739680681026
 21
111.6514984738929
 31
0.0
  0
LINE
  5
181
330
1F
100
AcDbEntity
  8
0
  6
Continuous
 62
     7
100
AcDbLine
 10
147.1438410491802
 20
111.6514984738922
 30
0.0
 11
147.1438410491802
 21
112.6514984738925
 31
0.0
  0
LINE
  5
182
330
1F
100
AcDbEntity
  8
0
  6
Continuous
 62
     7
100
AcDbLine
 10
147.1438410491802
 20
112.6514984738925
 30
0.0
 11
147.7211913183704
 21
111.6514984738925
 31
0.0
  0
LINE
  5
183
330
1F
100
AcDbEntity
  8
0
  6
Continuous
 62
     7
100
AcDbLine
 10
154.5339244948083
 20
111.6514984738931
 30
0.0
 11
154.0143092525376
 21
111.6514984738928
 31
0.0
  0
LINE
  5
184
330
1F
100
AcDbEntity
  8
0
  6
Continuous
 62
     7
100
AcDbLine
 10
149.3377720721009
 20
111.6514984738927
 30
0.0
 11
148.2408065606406
 21
111.6514984738926
 31
0.0
  0
LINE
  5
185
330
1F
100
AcDbEntity
  8
0
  6
Continuous
 62
     7
100
AcDbLine
 10
150.9543528258321
 20
111.6514984738925
 30
0.0
 11
149.8573873143718
 21
111.6514984738923
 31
0.0
  0
LINE
  5
186
330
1F
100
AcDbEntity
  8
0
  6
Continuous
 62
     7
100
AcDbLine
 10
152.0513183372926
 20
111.7514984738926
 30
0.0
 11
151.9358482834542
 21
111.7514984738924
 31
0.0
  0
LINE
  5
187
330
1F
100
AcDbEntity
  8
0
  6
Continuous
 62
     7
100
AcDbLine
 10
150.2037974758854
 20
114.7514984738921
 30
0.0
 11
151.9358482834542
 21
111.7514984738924
 31
0.0
  0
LINE
  5
188
330
1F
100
AcDbEntity
  8
0
  6
Continuous
 62
     7
100
AcDbLine
 10
152.0513183372926
 20
111.7514984738926
 30
0.0
 11
152.5131985526443
 21
112.5514984738928
 31
0.0
  0
LINE
  5
189
330
1F
100
AcDbEntity
  8
0
  6
Continuous
 62
     7
100
AcDbLine
 10
155.6308900062679
 20
116.2514984738927
 30
0.0
 11
152.9750787679965
 21
111.651498473893
 31
0.0
  0
LINE
  5
18A
330
1F
100
AcDbEntity
  8
0
  6
Continuous
 62
     7
100
AcDbLine
 10
157.0742656792423
 20
111.6514984738925
 30
0.0
 11
157.5938809215132
 21
112.5514984738936
 31
0.0
  0
LINE
  5
18B
330
1F
100
AcDbEntity
  8
0
  6
Continuous
 62
     7
100
AcDbLine
 10
147.1438410491803
 20
115.4514984738916
 30
0.0
 11
149.3377720721009
 21
111.6514984738927
 31
0.0
  0
LINE
  5
18C
330
1F
100
AcDbEntity
  8
0
  6
Continuous
 62
     7
100
AcDbLine
 10
148.2408065606406
 20
111.6514984738926
 30
0.0
 11
147.1438410491803
 21
113.5514984738919
 31
0.0
  0
LINE
  5
18D
330
1F
100
AcDbEntity
  8
0
  6
Continuous
 62
     7
100
AcDbLine
 10
147.1438410491803
 20
116.3514984738915
 30
0.0
 11
147.1438410491803
 21
118.2514984738918
 31
0.0
  0
LINE
  5
18E
330
1F
100
AcDbEntity
  8
0
  6
Continuous
 62
     7
100
AcDbLine
 10
151.1852929335072
 20
119.1514984738922
 30
0.0
 11
149.4243746124793
 21
116.1014984738918
 31
0.0
  0
LINE
  5
18F
330
1F
100
AcDbEntity
  8
0
  6
Continuous
 62
     7
100
AcDbLine
 10
149.94398985475
 20
115.201498473892
 30
0.0
 11
152.2245234180484
 21
119.1514984738919
 31
0.0
  0
LINE
  5
190
330
1F
100
AcDbEntity
  8
0
  6
Continuous
 62
     7
100
AcDbLine
 10
152.7441386603191
 20
119.1514984738922
 30
0.0
 11
150.2037974758854
 21
114.7514984738921
 31
0.0
  0
LINE
  5
191
330
1F
100
AcDbEntity
  8
0
  6
Continuous
 62
     7
100
AcDbLine
 10
157.0683255715661
 20
114.2412099055959
 30
0.0
 11
157.5938809215127
 21
115.1514984738931
 31
0.0
  0
LINE
  5
192
330
1F
100
AcDbEntity
  8
0
  6
Continuous
 62
     7
100
AcDbLine
 10
158.1941585964859
 20
113.5912099055961
 30
0.0
 11
157.0683255715661
 21
114.2412099055959
 31
0.0
  0
LINE
  5
193
330
1F
100
AcDbEntity
  8
0
  6
Continuous
 62
     7
100
AcDbLine
 10
156.6183255715663
 20
113.4617870421901
 30
0.0
 11
157.7441585964858
 21
112.8117870421901
 31
0.0
  0
LINE
  5
194
330
1F
100
AcDbEntity
  8
0
  6
Continuous
 62
     7
100
AcDbLine
 10
156.0927702216198
 20
112.5514984738928
 30
0.0
 11
156.6183255715663
 21
113.4617870421901
 31
0.0
  0
LINE
  5
195
330
1F
100
AcDbEntity
  8
0
  6
Continuous
 62
     7
100
AcDbLine
 10
157.5938809215132
 20
112.5514984738936
 30
0.0
 11
156.0927702216198
 21
112.5514984738928
 31
0.0
  0
LINE
  5
196
330
1F
100
AcDbEntity
  8
0
  6
Continuous
 62
     7
100
AcDbLine
 10
152.5131985526443
 20
112.5514984738928
 30
0.0
 11
151.2430279604267
 21
114.7514984738922
 31
0.0
  0
LINE
  5
197
330
1F
100
AcDbEntity
  8
0
  6
Continuous
 62
     7
100
AcDbLine
 10
155.0586468198342
 20
116.9603442007046
 30
0.0
 11
155.0586468198343
 21
119.1514984738922
 31
0.0
  0
LINE
  5
198
330
1F
100
AcDbEntity
  8
0
  6
Continuous
 62
     7
100
AcDbLine
 10
158.4599063252969
 20
119.1514984738926
 30
0.0
 11
157.3629408138363
 21
119.1514984738923
 31
0.0
  0
LINE
  5
199
330
1F
100
AcDbEntity
  8
0
  6
Continuous
 62
     7
100
AcDbLine
 10
156.8433255715657
 20
119.1514984738923
 30
0.0
 11
155.0586468198343
 21
119.1514984738922
 31
0.0
  0
LINE
  5
19A
330
1F
100
AcDbEntity
  8
0
  6
Continuous
 62
     7
100
AcDbLine
 10
157.3340733003771
 20
117.4014984738929
 30
0.0
 11
156.9562420840257
 21
118.0559213372988
 31
0.0
  0
LINE
  5
19B
330
1F
100
AcDbEntity
  8
0
  6
Continuous
 62
     7
100
AcDbLine
 10
156.9562420840257
 20
118.0559213372988
 30
0.0
 11
155.0586468198342
 21
116.9603442007046
 31
0.0
  0
LINE
  5
19C
330
1F
100
AcDbEntity
  8
0
  6
Continuous
 62
     7
100
AcDbLine
 10
161.1734525904882
 20
118.1514984738932
 30
0.0
 11
161.1734525904882
 21
119.1514984738928
 31
0.0
  0
LINE
  5
19D
330
1F
100
AcDbEntity
  8
0
  6
Continuous
 62
     7
100
AcDbLine
 10
161.1734525904882
 20
119.1514984738928
 30
0.0
 11
160.5961023212982
 21
119.1514984738923
 31
0.0
  0
LINE
  5
19E
330
1F
100
AcDbEntity
  8
0
  6
Continuous
 62
     7
100
AcDbLine
 10
161.1734525904882
 20
118.1514984738932
 30
0.0
 11
160.5961023212982
 21
119.1514984738923
 31
0.0
  0
LINE
  5
19F
330
1F
100
AcDbEntity
  8
0
  6
Continuous
 62
     7
100
AcDbLine
 10
160.0764870790275
 20
119.1514984738927
 30
0.0
 11
161.1734525904881
 21
117.2514984738929
 31
0.0
  0
LINE
  5
1A0
330
1F
100
AcDbEntity
  8
0
  6
Continuous
 62
     7
100
AcDbLine
 10
152.7441386603191
 20
119.1514984738922
 30
0.0
 11
152.2245234180484
 21
119.1514984738919
 31
0.0
  0
LINE
  5
1A1
330
1F
100
AcDbEntity
  8
0
  6
Continuous
 62
     7
100
AcDbLine
 10
160.0764870790275
 20
119.1514984738927
 30
0.0
 11
158.9795215675673
 21
119.1514984738923
 31
0.0
  0
LINE
  5
1A2
330
1F
100
AcDbEntity
  8
0
  6
Continuous
 62
     7
100
AcDbLine
 10
154.3029843871311
 20
119.1514984738923
 30
0.0
 11
153.7833691448604
 21
119.1514984738922
 31
0.0
  0
LINE
  5
1A3
330
1F
100
AcDbEntity
  8
0
  6
Continuous
 62
     7
100
AcDbLine
 10
151.1852929335072
 20
119.1514984738922
 30
0.0
 11
147.1438410491804
 21
119.1514984738907
 31
0.0
  0
LINE
  5
1A4
330
1F
100
AcDbEntity
  8
0
  6
Continuous
 62
     7
100
AcDbLine
 10
147.1438410491803
 20
113.5514984738919
 30
0.0
 11
147.1438410491803
 21
115.4514984738916
 31
0.0
  0
LINE
  5
1A5
330
1F
100
AcDbEntity
  8
0
  6
Continuous
 62
     7
100
AcDbLine
 10
149.4243746124793
 20
116.1014984738918
 30
0.0
 11
149.94398985475
 21
115.201498473892
 31
0.0
  0
LINE
  5
1A6
330
1F
100
AcDbEntity
  8
0
  6
Continuous
 62
     7
100
AcDbLine
 10
151.7626432026974
 20
114.7514984738924
 30
0.0
 11
152.2822584449682
 21
113.8514984738923
 31
0.0
  0
LINE
  5
1A7
330
1F
100
AcDbEntity
  8
0
  6
Continuous
 62
     7
100
AcDbLine
 10
161.173452590488
 20
112.5514984738939
 30
0.0
 11
161.1734525904881
 21
114.4514984738938
 31
0.0
  0
LINE
  5
1A8
330
1F
100
AcDbEntity
  8
0
  6
Continuous
 62
     7
100
AcDbLine
 10
157.5938809215127
 20
115.1514984738931
 30
0.0
 11
158.3444362714592
 21
113.8514984738934
 31
0.0
  0
LINE
  5
1A9
330
1F
100
AcDbEntity
  8
0
  6
Continuous
 62
     7
100
AcDbLine
 10
157.7441585964858
 20
112.8117870421901
 30
0.0
 11
158.1941585964859
 21
113.5912099055961
 31
0.0
  0
LINE
  5
1AA
330
1F
100
AcDbEntity
  8
0
  6
Continuous
 62
     7
100
AcDbLine
 10
154.1586468198343
 20
115.4014984738926
 30
0.0
 11
155.6308900062679
 21
116.2514984738927
 31
0.0
  0
LINE
  5
1AB
330
1F
100
AcDbEntity
  8
0
  6
Continuous
 62
     7
100
AcDbLine
 10
158.3444362714592
 20
113.8514984738934
 30
0.0
 11
158.8640515137297
 21
114.7514984738933
 31
0.0
  0
LINE
  5
1AC
330
1F
100
AcDbEntity
  8
0
  6
Continuous
 62
     7
100
AcDbLine
 10
158.8640515137297
 20
114.7514984738933
 30
0.0
 11
157.5938809215124
 21
116.9514984738929
 31
0.0
  0
LINE
  5
1AD
330
1F
100
AcDbEntity
  8
0
  6
Continuous
 62
     7
100
AcDbLine
 10
154.1586468198343
 20
115.4014984738926
 30
0.0
 11
154.1586468198341
 21
117.1014984738926
 31
0.0
  0
LINE
  5
1AE
330
1F
100
AcDbEntity
  8
0
  6
Continuous
 62
     7
100
AcDbLine
 10
152.2822584449682
 20
113.8514984738923
 30
0.0
 11
154.1586468198341
 21
117.1014984738926
 31
0.0
  0
LINE
  5
1AF
330
1F
100
AcDbEntity
  8
0
  6
Continuous
 62
     7
100
AcDbLine
 10
154.3029843871311
 20
119.1514984738923
 30
0.0
 11
151.7626432026974
 21
114.7514984738924
 31
0.0
  0
LINE
  5
1B0
330
1F
100
AcDbEntity
  8
0
  6
Continuous
 62
     7
100
AcDbLine
 10
151.2430279604267
 20
114.7514984738922
 30
0.0
 11
153.7833691448604
 21
119.1514984738922
 31
0.0
  0
LINE
  5
1B1
330
1F
100
AcDbEntity
  8
0
  6
Continuous
 62
     7
100
AcDbLine
 10
146.6438410491797
 20
120.0184996577646
 30
0.0
 11
116.6586468198343
 21
120.0184996577646
 31
0.0
  0
LINE
  5
1B2
330
1F
100
AcDbEntity
  8
0
  6
Continuous
 62
     7
100
AcDbLine
 10
116.6586468198343
 20
118.426259386733
 30
0.0
 11
146.6438410491797
 21
118.426259386733
 31
0.0
  0
LINE
  5
1B3
330
1F
100
AcDbEntity
  8
0
  6
Continuous
 62
     7
100
AcDbLine
 10
116.6586468198343
 20
116.5996708997899
 30
0.0
 11
146.6438410491797
 21
116.5996708997899
 31
0.0
  0
LINE
  5
1B4
330
1F
100
AcDbEntity
  8
0
  6
Continuous
 62
     7
100
AcDbLine
 10
116.6586468198343
 20
113.7322373942504
 30
0.0
 11
146.6438410491797
 21
113.7322373942504
 31
0.0
  0
LINE
  5
1B5
330
1F
100
AcDbEntity
  8
0
  6
Continuous
 62
     7
100
AcDbLine
 10
121.0894757473784
 20
111.9941534663957
 30
0.0
 11
144.4778178922903
 21
111.9941534663957
 31
0.0
  0
LINE
  5
1B6
330
1F
100
AcDbEntity
  8
0
  6
Continuous
 62
     7
100
AcDbLine
 10
158.4599063252969
 20
119.1514984738926
 30
0.0
 11
161.1734525904881
 21
114.4514984738938
 31
0.0
  0
LINE
  5
1B7
330
1F
100
AcDbEntity
  8
0
  6
Continuous
 62
     7
100
AcDbLine
 10
149.8573873143718
 20
111.6514984738923
 30
0.0
 11
147.1438410491803
 21
116.3514984738915
 31
0.0
  0
LINE
  5
1B8
330
1F
100
AcDbEntity
  8
0
  6
Continuous
 62
     7
100
AcDbLine
 10
161.173452590488
 20
112.5514984738939
 30
0.0
 11
157.3629408138363
 21
119.1514984738923
 31
0.0
  0
LINE
  5
1B9
330
1F
100
AcDbEntity
  8
0
  6
Continuous
 62
     7
100
AcDbLine
 10
157.5938809215124
 20
116.9514984738929
 30
0.0
 11
154.5339244948083
 21
111.6514984738931
 31
0.0
  0
LINE
  5
1BA
330
1F
100
AcDbEntity
  8
0
  6
Continuous
 62
     7
100
AcDbLine
 10
154.0143092525376
 20
111.6514984738928
 30
0.0
 11
157.3340733003771
 21
117.4014984738929
 31
0.0
  0
LINE
  5
1BB
330
1F
100
AcDbEntity
  8
0
  6
Continuous
 62
     7
100
AcDbLine
 10
147.1438410491803
 20
118.2514984738918
 30
0.0
 11
150.9543528258321
 21
111.6514984738925
 31
0.0
  0
LINE
  5
1BC
330
1F
100
AcDbEntity
  8
0
  6
Continuous
 62
     7
100
AcDbLine
 10
151.4739680681026
 20
111.6514984738929
 30
0.0
 11
147.1438410491804
 21
119.1514984738907
 31
0.0
  0
LINE
  5
1BD
330
1F
100
AcDbEntity
  8
0
  6
Continuous
 62
     7
100
AcDbLine
 10
116.6586468198343
 20
109.3091600831619
 30
0.0
 11
191.6586468198343
 21
109.3091600831619
 31
0.0
  0
LINE
  5
1BE
330
1F
100
AcDbEntity
  8
0
  6
Continuous
 62
     7
100
AcDbLine
 10
116.6586468198343
 20
108.6522800288255
 30
0.0
 11
191.6586468198343
 21
108.6522800288255
 31
0.0
  0
LINE
  5
1BF
330
1F
100
AcDbEntity
  8
0
  6
Continuous
 62
     7
100
AcDbLine
 10
116.6586468198343
 20
108.5544652687522
 30
0.0
 11
191.6586468198343
 21
108.5544652687522
 31
0.0
  0
LINE
  5
1C0
330
1F
100
AcDbEntity
  8
0
  6
Continuous
 62
     7
100
AcDbLine
 10
116.6586468198343
 20
108.4185501220701
 30
0.0
 11
191.6586468198343
 21
108.4185501220701
 31
0.0
  0
LINE
  5
1C1
330
1F
100
AcDbEntity
  8
0
  6
Continuous
 62
     7
100
AcDbLine
 10
191.6586468198343
 20
108.4014984738889
 30
0.0
 11
116.6586468198343
 21
108.4014984738889
 31
0.0
  0
LINE
  5
1C2
330
1F
100
AcDbEntity
  8
0
  6
Continuous
 62
     7
100
AcDbLine
 10
161.6734525904888
 20
110.3661198715232
 30
0.0
 11
146.6438410491797
 21
110.3661198715178
 31
0.0
  0
LINE
  5
1C3
330
1F
100
AcDbEntity
  8
0
  6
Continuous
 62
     7
100
AcDbLine
 10
116.6586468198343
 20
109.7383795132638
 30
0.0
 11
191.6586468198343
 21
109.7383795132638
 31
0.0
  0
LINE
  5
1C4
330
1F
100
AcDbEntity
  8
0
  6
Continuous
 62
     7
100
AcDbLine
 10
191.6586468198343
 20
122.0342041758631
 30
0.0
 11
116.6586468198343
 21
122.0342041758631
 31
0.0
  0
LINE
  5
1C5
330
1F
100
AcDbEntity
  8
0
  6
Continuous
 62
     7
100
AcDbLine
 10
116.6586468198343
 20
122.130330345457
 30
0.0
 11
191.6586468198343
 21
122.130330345457
 31
0.0
  0
LINE
  5
1C6
330
1F
100
AcDbEntity
  8
0
  6
Continuous
 62
     7
100
AcDbLine
 10
116.6586468198343
 20
112.7792523199768
 30
0.0
 11
116.6586468198343
 21
113.7080452046905
 31
0.0
  0
LINE
  5
1C7
330
1F
100
AcDbEntity
  8
0
  6
Continuous
 62
     7
100
AcDbLine
 10
116.6586468198343
 20
111.9514984738882
 30
0.0
 11
116.6586468198343
 21
112.7792523199768
 31
0.0
  0
LINE
  5
1C8
330
1F
100
AcDbEntity
  8
0
  6
Continuous
 62
     7
100
AcDbLine
 10
121.1827268525605
 20
111.9514984738882
 30
0.0
 11
121.0894757473784
 21
111.9941534663957
 31
0.0
  0
LINE
  5
1C9
330
1F
100
AcDbEntity
  8
0
  6
Continuous
 62
     7
100
AcDbLine
 10
121.2135553938114
 20
111.9373968587545
 30
0.0
 11
121.1827268525605
 21
111.9514984738882
 31
0.0
  0
LINE
  5
1CA
330
1F
100
AcDbEntity
  8
0
  6
Continuous
 62
     7
100
AcDbLine
 10
116.6586468198343
 20
112.7792523199768
 30
0.0
 11
146.6438410491797
 21
112.7792523199768
 31
0.0
  0
LINE
  5
1CB
330
1F
100
AcDbEntity
  8
0
  6
Continuous
 62
     7
100
AcDbLine
 10
146.6438410491797
 20
118.4700965014118
 30
0.0
 11
146.6438410491797
 21
118.426259386733
 31
0.0
  0
LINE
  5
1CC
330
1F
100
AcDbEntity
  8
0
  6
Continuous
 62
     7
100
AcDbLine
 10
146.6438410491797
 20
119.3158487981835
 30
0.0
 11
146.6438410491797
 21
118.4700965014118
 31
0.0
  0
LINE
  5
1CD
330
1F
100
AcDbEntity
  8
0
  6
Continuous
 62
     7
100
AcDbLine
 10
146.6438410491797
 20
116.5996708997899
 30
0.0
 11
146.6438410491797
 21
116.6170357175567
 31
0.0
  0
LINE
  5
1CE
330
1F
100
AcDbEntity
  8
0
  6
Continuous
 62
     7
100
AcDbLine
 10
146.6438410491797
 20
117.5646174345129
 30
0.0
 11
146.6438410491797
 21
116.6170357175567
 31
0.0
  0
LINE
  5
1CF
330
1F
100
AcDbEntity
  8
0
  6
Continuous
 62
     7
100
AcDbLine
 10
146.6438410491797
 20
113.7080452046905
 30
0.0
 11
146.6438410491797
 21
112.7792523199768
 31
0.0
  0
LINE
  5
1D0
330
1F
100
AcDbEntity
  8
0
  6
Continuous
 62
     7
100
AcDbLine
 10
146.6438410491797
 20
113.7080452046905
 30
0.0
 11
146.6438410491797
 21
113.7322373942504
 31
0.0
  0
LINE
  5
1D1
330
1F
100
AcDbEntity
  8
0
  6
Continuous
 62
     7
100
AcDbLine
 10
146.6438410491797
 20
120.0854127184059
 30
0.0
 11
146.6438410491797
 21
120.0184996577646
 31
0.0
  0
LINE
  5
1D2
330
1F
100
AcDbEntity
  8
0
  6
Continuous
 62
     7
100
AcDbLine
 10
146.6438410491797
 20
115.6457949508057
 30
0.0
 11
146.6438410491797
 21
114.6697992310145
 31
0.0
  0
LINE
  5
1D3
330
1F
100
AcDbEntity
  8
0
  6
Continuous
 62
     7
100
AcDbLine
 10
144.4778178922903
 20
111.9941534663957
 30
0.0
 11
144.3845667871082
 21
111.9514984738882
 31
0.0
  0
LINE
  5
1D4
330
1F
100
AcDbEntity
  8
0
  6
Continuous
 62
     7
100
AcDbLine
 10
116.6586468198343
 20
113.7322373942504
 30
0.0
 11
116.6586468198343
 21
113.7080452046905
 31
0.0
  0
LINE
  5
1D5
330
1F
100
AcDbEntity
  8
0
  6
Continuous
 62
     7
100
AcDbLine
 10
116.6586468198343
 20
116.5996708997899
 30
0.0
 11
116.6586468198343
 21
115.6457949508057
 31
0.0
  0
LINE
  5
1D6
330
1F
100
AcDbEntity
  8
0
  6
Continuous
 62
     7
100
AcDbLine
 10
116.6586468198343
 20
117.5646174345129
 30
0.0
 11
116.6586468198343
 21
116.6170357175567
 31
0.0
  0
LINE
  5
1D7
330
1F
100
AcDbEntity
  8
0
  6
Continuous
 62
     7
100
AcDbLine
 10
116.6586468198343
 20
118.426259386733
 30
0.0
 11
116.6586468198343
 21
118.4700965014118
 31
0.0
  0
LINE
  5
1D8
330
1F
100
AcDbEntity
  8
0
  6
Continuous
 62
     7
100
AcDbLine
 10
116.6586468198343
 20
118.4700965014118
 30
0.0
 11
146.6438410491797
 21
118.4700965014118
 31
0.0
  0
LINE
  5
1D9
330
1F
100
AcDbEntity
  8
0
  6
Continuous
 62
     7
100
AcDbLine
 10
116.6586468198343
 20
115.6457949508057
 30
0.0
 11
116.6586468198343
 21
114.6697992310146
 31
0.0
  0
LINE
  5
1DA
330
1F
100
AcDbEntity
  8
0
  6
Continuous
 62
     7
100
AcDbLine
 10
116.6586468198343
 20
116.6170357175567
 30
0.0
 11
116.6586468198343
 21
116.5996708997899
 31
0.0
  0
LINE
  5
1DB
330
1F
100
AcDbEntity
  8
0
  6
Continuous
 62
     7
100
AcDbLine
 10
146.6438410491797
 20
120.0854127184059
 30
0.0
 11
116.6586468198343
 21
120.0854127184005
 31
0.0
  0
LINE
  5
1DC
330
1F
100
AcDbEntity
  8
0
  6
Continuous
 62
     7
100
AcDbLine
 10
116.6586468198343
 20
119.3158487981835
 30
0.0
 11
146.6438410491797
 21
119.3158487981835
 31
0.0
  0
LINE
  5
1DD
330
1F
100
AcDbEntity
  8
0
  6
Continuous
 62
     7
100
AcDbLine
 10
116.6586468198343
 20
117.5646174345129
 30
0.0
 11
146.6438410491797
 21
117.5646174345129
 31
0.0
  0
LINE
  5
1DE
330
1F
100
AcDbEntity
  8
0
  6
Continuous
 62
     7
100
AcDbLine
 10
116.6586468198343
 20
116.6170357175567
 30
0.0
 11
146.6438410491797
 21
116.6170357175567
 31
0.0
  0
LINE
  5
1DF
330
1F
100
AcDbEntity
  8
0
  6
Continuous
 62
     7
100
AcDbLine
 10
116.6586468198343
 20
119.3158487981835
 30
0.0
 11
116.6586468198343
 21
118.4700965014118
 31
0.0
  0
LINE
  5
1E0
330
1F
100
AcDbEntity
  8
0
  6
Continuous
 62
     7
100
AcDbLine
 10
116.6586468198343
 20
118.426259386733
 30
0.0
 11
116.6586468198343
 21
117.5646174345129
 31
0.0
  0
LINE
  5
1E1
330
1F
100
AcDbEntity
  8
0
  6
Continuous
 62
     7
100
AcDbLine
 10
116.6586468198343
 20
120.0184996577646
 30
0.0
 11
116.6586468198343
 21
119.3158487981835
 31
0.0
  0
LINE
  5
1E2
330
1F
100
AcDbEntity
  8
0
  6
Continuous
 62
     7
100
AcDbLine
 10
116.6586468198343
 20
115.6457949508057
 30
0.0
 11
146.6438410491797
 21
115.6457949508057
 31
0.0
  0
LINE
  5
1E3
330
1F
100
AcDbEntity
  8
0
  6
Continuous
 62
     7
100
AcDbLine
 10
146.6438410491797
 20
114.6697992310145
 30
0.0
 11
116.6586468198343
 21
114.6697992310146
 31
0.0
  0
LINE
  5
1E4
330
1F
100
AcDbEntity
  8
0
  6
Continuous
 62
     7
100
AcDbLine
 10
116.6586468198343
 20
113.7080452046905
 30
0.0
 11
146.6438410491797
 21
113.7080452046905
 31
0.0
  0
LINE
  5
1E5
330
1F
100
AcDbEntity
  8
0
  6
Continuous
 62
     7
100
AcDbLine
 10
116.6586468198343
 20
111.9014984738882
 30
0.0
 11
146.6438410491797
 21
111.9014984738881
 31
0.0
  0
LINE
  5
1E6
330
1F
100
AcDbEntity
  8
0
  6
Continuous
 62
     7
100
AcDbLine
 10
116.6586468198343
 20
111.0918681466087
 30
0.0
 11
146.6438410491797
 21
111.0918681466087
 31
0.0
  0
LINE
  5
1E7
330
1F
100
AcDbEntity
  8
0
  6
Continuous
 62
     7
100
AcDbLine
 10
116.6586468198343
 20
110.4380538515516
 30
0.0
 11
146.6438410491797
 21
110.4380538515516
 31
0.0
  0
LINE
  5
1E8
330
1F
100
AcDbEntity
  8
0
  6
Continuous
 62
     7
100
AcDbLine
 10
116.6586468198343
 20
110.3661198715178
 30
0.0
 11
146.6438410491797
 21
110.3661198715178
 31
0.0
  0
LINE
  5
1E9
330
1F
100
AcDbEntity
  8
0
  6
Continuous
 62
     7
100
AcDbLine
 10
116.6586468198343
 20
108.4014984738889
 30
0.0
 11
116.6586468198343
 21
108.4185501220701
 31
0.0
  0
LINE
  5
1EA
330
1F
100
AcDbEntity
  8
0
  6
Continuous
 62
     7
100
AcDbLine
 10
116.6586468198343
 20
108.5544652687522
 30
0.0
 11
116.6586468198343
 21
108.4185501220701
 31
0.0
  0
LINE
  5
1EB
330
1F
100
AcDbEntity
  8
0
  6
Continuous
 62
     7
100
AcDbLine
 10
116.6586468198343
 20
108.6522800288255
 30
0.0
 11
116.6586468198343
 21
108.5544652687522
 31
0.0
  0
LINE
  5
1EC
330
1F
100
AcDbEntity
  8
0
  6
Continuous
 62
     7
100
AcDbLine
 10
116.6586468198343
 20
109.220865323876
 30
0.0
 11
116.6586468198343
 21
108.8236501283873
 31
0.0
  0
LINE
  5
1ED
330
1F
100
AcDbEntity
  8
0
  6
Continuous
 62
     7
100
AcDbLine
 10
116.6586468198343
 20
109.3091600831619
 30
0.0
 11
116.6586468198343
 21
109.220865323876
 31
0.0
  0
LINE
  5
1EE
330
1F
100
AcDbEntity
  8
0
  6
Continuous
 62
     7
100
AcDbLine
 10
116.6586468198343
 20
110.3661198715178
 30
0.0
 11
116.6586468198343
 21
109.7383795132638
 31
0.0
  0
LINE
  5
1EF
330
1F
100
AcDbEntity
  8
0
  6
Continuous
 62
     7
100
AcDbLine
 10
116.6586468198343
 20
111.9014984738882
 30
0.0
 11
116.6586468198343
 21
111.0918681466087
 31
0.0
  0
LINE
  5
1F0
330
1F
100
AcDbEntity
  8
0
  6
Continuous
 62
     7
100
AcDbLine
 10
116.6586468198343
 20
110.4380538515516
 30
0.0
 11
116.6586468198343
 21
110.3661198715178
 31
0.0
  0
LINE
  5
1F1
330
1F
100
AcDbEntity
  8
0
  6
Continuous
 62
     7
100
AcDbLine
 10
116.6586468198343
 20
111.0918681466087
 30
0.0
 11
116.6586468198343
 21
110.4380538515516
 31
0.0
  0
LINE
  5
1F2
330
1F
100
AcDbEntity
  8
0
  6
Continuous
 62
     7
100
AcDbLine
 10
116.6586468198343
 20
109.7383795132638
 30
0.0
 11
116.6586468198343
 21
109.3091600831619
 31
0.0
  0
LINE
  5
1F3
330
1F
100
AcDbEntity
  8
0
  6
Continuous
 62
     7
100
AcDbLine
 10
116.6586468198343
 20
108.8236501283873
 30
0.0
 11
116.6586468198343
 21
108.6522800288255
 31
0.0
  0
LINE
  5
1F4
330
1F
100
AcDbEntity
  8
0
  6
Continuous
 62
     7
100
AcDbLine
 10
116.6586468198343
 20
91.32498356182379
 30
0.0
 11
116.6586468198343
 21
108.4014984738889
 31
0.0
  0
LINE
  5
1F5
330
1F
100
AcDbEntity
  8
0
  6
Continuous
 62
     7
100
AcDbLine
 10
121.2135553938114
 20
111.9373968587545
 30
0.0
 11
144.3537382458572
 21
111.9373968587545
 31
0.0
  0
LINE
  5
1F6
330
1F
100
AcDbEntity
  8
0
  6
Continuous
 62
     7
100
AcDbLine
 10
144.3845667871082
 20
111.9514984738882
 30
0.0
 11
146.6438410491797
 21
111.9514984738881
 31
0.0
  0
LINE
  5
1F7
330
1F
100
AcDbEntity
  8
0
  6
Continuous
 62
     7
100
AcDbLine
 10
124.1586468198343
 20
101.1660008714261
 30
0.0
 11
124.1583421869382
 21
101.1485484644979
 31
0.0
  0
LINE
  5
1F8
330
1F
100
AcDbEntity
  8
0
  6
Continuous
 62
     7
100
AcDbLine
 10
124.1586468198343
 20
101.1660008714261
 30
0.0
 11
124.1586468198343
 21
105.3564860246467
 31
0.0
  0
LINE
  5
1F9
330
1F
100
AcDbEntity
  8
0
  6
Continuous
 62
     7
100
AcDbLine
 10
122.2586468198343
 20
100.1660008714261
 30
0.0
 11
122.2586468198343
 21
103.3372607564612
 31
0.0
  0
LINE
  5
1FA
330
1F
100
AcDbEntity
  8
0
  6
Continuous
 62
     7
100
AcDbLine
 10
146.6438410491797
 20
111.9014984738881
 30
0.0
 11
146.6438410491797
 21
111.9514984738881
 31
0.0
  0
LINE
  5
1FB
330
1F
100
AcDbEntity
  8
0
  6
Continuous
 62
     7
100
AcDbLine
 10
146.6438410491797
 20
111.9014984738881
 30
0.0
 11
146.6438410491797
 21
111.0918681466087
 31
0.0
  0
LINE
  5
1FC
330
1F
100
AcDbEntity
  8
0
  6
Continuous
 62
     7
100
AcDbLine
 10
146.6438410491797
 20
110.3661198715178
 30
0.0
 11
146.6438410491797
 21
110.4380538515516
 31
0.0
  0
LINE
  5
1FD
330
1F
100
AcDbEntity
  8
0
  6
Continuous
 62
     7
100
AcDbLine
 10
123.0188539725626
 20
94.16600087993845
 30
0.0
 11
122.2586468198343
 21
94.16600087142612
 31
0.0
  0
LINE
  5
1FE
330
1F
100
AcDbEntity
  8
0
  6
Continuous
 62
     7
100
AcDbLine
 10
131.157580685929
 20
101.1660008714264
 30
0.0
 11
177.1597129537396
 21
101.1660008714261
 31
0.0
  0
LINE
  5
1FF
330
1F
100
AcDbEntity
  8
0
  6
Continuous
 62
     7
100
AcDbLine
 10
123.1584944918463
 20
100.1660008738329
 30
0.0
 11
122.2586468198343
 21
100.1660008714261
 31
0.0
  0
LINE
  5
200
330
1F
100
AcDbEntity
  8
0
  6
Continuous
 62
     7
100
AcDbLine
 10
144.3845667871082
 20
111.9514984738882
 30
0.0
 11
144.3537382458572
 21
111.9373968587545
 31
0.0
  0
LINE
  5
201
330
1F
100
AcDbEntity
  8
0
  6
Continuous
 62
     7
100
AcDbLine
 10
124.1583421869382
 20
101.1485484644979
 30
0.0
 11
124.0187016689032
 21
93.14854854417413
 31
0.0
  0
LINE
  5
202
330
1F
100
AcDbEntity
  8
0
  6
Continuous
 62
     7
100
AcDbLine
 10
125.2586468198343
 20
105.5076483496425
 30
0.0
 11
183.0586468198343
 21
105.5076483496425
 31
0.0
  0
LINE
  5
203
330
1F
100
AcDbEntity
  8
0
  6
Continuous
 62
     7
100
AcDbLine
 10
161.6734525904888
 20
116.6170357175567
 30
0.0
 11
161.6734525904888
 21
116.5996708997899
 31
0.0
  0
LINE
  5
204
330
1F
100
AcDbEntity
  8
0
  6
Continuous
 62
     7
100
AcDbLine
 10
161.6734525904888
 20
116.6170357175567
 30
0.0
 11
191.6586468198343
 21
116.6170357175567
 31
0.0
  0
LINE
  5
205
330
1F
100
AcDbEntity
  8
0
  6
Continuous
 62
     7
100
AcDbLine
 10
161.6734525904888
 20
117.5646174345129
 30
0.0
 11
161.6734525904888
 21
116.6170357175567
 31
0.0
  0
LINE
  5
206
330
1F
100
AcDbEntity
  8
0
  6
Continuous
 62
     7
100
AcDbLine
 10
161.6734525904888
 20
117.5646174345129
 30
0.0
 11
191.6586468198343
 21
117.5646174345129
 31
0.0
  0
LINE
  5
207
330
1F
100
AcDbEntity
  8
0
  6
Continuous
 62
     7
100
AcDbLine
 10
161.6734525904888
 20
118.426259386733
 30
0.0
 11
191.6586468198343
 21
118.426259386733
 31
0.0
  0
LINE
  5
208
330
1F
100
AcDbEntity
  8
0
  6
Continuous
 62
     7
100
AcDbLine
 10
191.6586468198343
 20
114.6697992310145
 30
0.0
 11
161.6734525904888
 21
114.6697992310145
 31
0.0
  0
LINE
  5
209
330
1F
100
AcDbEntity
  8
0
  6
Continuous
 62
     7
100
AcDbLine
 10
161.6734525904888
 20
115.6457949508057
 30
0.0
 11
191.6586468198343
 21
115.6457949508056
 31
0.0
  0
LINE
  5
20A
330
1F
100
AcDbEntity
  8
0
  6
Continuous
 62
     7
100
AcDbLine
 10
161.6734525904888
 20
113.7322373942504
 30
0.0
 11
161.6734525904888
 21
113.7080452046905
 31
0.0
  0
LINE
  5
20B
330
1F
100
AcDbEntity
  8
0
  6
Continuous
 62
     7
100
AcDbLine
 10
161.6734525904888
 20
115.6457949508057
 30
0.0
 11
161.6734525904888
 21
114.6697992310145
 31
0.0
  0
LINE
  5
20C
330
1F
100
AcDbEntity
  8
0
  6
Continuous
 62
     7
100
AcDbLine
 10
191.6586468198343
 20
116.5996708997899
 30
0.0
 11
161.6734525904888
 21
116.5996708997899
 31
0.0
  0
LINE
  5
20D
330
1F
100
AcDbEntity
  8
0
  6
Continuous
 62
     7
100
AcDbLine
 10
191.6586468198343
 20
89.90149847389273
 30
0.0
 11
186.158646819834
 21
89.90149847389273
 31
0.0
  0
LINE
  5
20E
330
1F
100
AcDbEntity
  8
0
  6
Continuous
 62
     7
100
AcDbLine
 10
161.6734525904888
 20
112.7792523199768
 30
0.0
 11
191.6586468198343
 21
112.7792523199768
 31
0.0
  0
LINE
  5
20F
330
1F
100
AcDbEntity
  8
0
  6
Continuous
 62
     7
100
AcDbLine
 10
161.6734525904888
 20
113.7080452046905
 30
0.0
 11
161.6734525904888
 21
112.7792523199768
 31
0.0
  0
LINE
  5
210
330
1F
100
AcDbEntity
  8
0
  6
Continuous
 62
     7
100
AcDbLine
 10
187.1037382458574
 20
111.9373968587545
 30
0.0
 11
163.9635553938114
 21
111.9373968587545
 31
0.0
  0
LINE
  5
211
330
1F
100
AcDbEntity
  8
0
  6
Continuous
 62
     7
100
AcDbLine
 10
163.9327268525605
 20
111.9514984738882
 30
0.0
 11
163.9635553938114
 21
111.9373968587545
 31
0.0
  0
LINE
  5
212
330
1F
100
AcDbEntity
  8
0
  6
Continuous
 62
     7
100
AcDbLine
 10
191.6586468198343
 20
113.7322373942504
 30
0.0
 11
161.6734525904888
 21
113.7322373942504
 31
0.0
  0
LINE
  5
213
330
1F
100
AcDbEntity
  8
0
  6
Continuous
 62
     7
100
AcDbLine
 10
163.8394757473784
 20
111.9941534663957
 30
0.0
 11
163.9327268525605
 21
111.9514984738882
 31
0.0
  0
LINE
  5
214
330
1F
100
AcDbEntity
  8
0
  6
Continuous
 62
     7
100
AcDbLine
 10
161.6734525904888
 20
111.9514984738881
 30
0.0
 11
161.6734525904888
 21
111.9014984738881
 31
0.0
  0
LINE
  5
215
330
1F
100
AcDbEntity
  8
0
  6
Continuous
 62
     7
100
AcDbLine
 10
161.6734525904888
 20
113.7080452046905
 30
0.0
 11
191.6586468198343
 21
113.7080452046905
 31
0.0
  0
LINE
  5
216
330
1F
100
AcDbEntity
  8
0
  6
Continuous
 62
     7
100
AcDbLine
 10
191.6586468198343
 20
109.220865323876
 30
0.0
 11
191.6586468198343
 21
108.8236501283872
 31
0.0
  0
LINE
  5
217
330
1F
100
AcDbEntity
  8
0
  6
Continuous
 62
     7
100
AcDbLine
 10
187.1037382458574
 20
111.9373968587545
 30
0.0
 11
187.1345667871082
 21
111.9514984738882
 31
0.0
  0
LINE
  5
218
330
1F
100
AcDbEntity
  8
0
  6
Continuous
 62
     7
100
AcDbLine
 10
191.6586468198343
 20
109.7383795132638
 30
0.0
 11
191.6586468198343
 21
109.3091600831619
 31
0.0
  0
LINE
  5
219
330
1F
100
AcDbEntity
  8
0
  6
Continuous
 62
     7
100
AcDbLine
 10
187.1345667871082
 20
111.9514984738882
 30
0.0
 11
187.2278178922903
 21
111.9941534663957
 31
0.0
  0
LINE
  5
21A
330
1F
100
AcDbEntity
  8
0
  6
Continuous
 62
     7
100
AcDbLine
 10
191.6586468198343
 20
108.6522800288255
 30
0.0
 11
191.6586468198343
 21
108.5544652687522
 31
0.0
  0
LINE
  5
21B
330
1F
100
AcDbEntity
  8
0
  6
Continuous
 62
     7
100
AcDbLine
 10
191.6586468198343
 20
108.8236501283872
 30
0.0
 11
191.6586468198343
 21
108.6522800288255
 31
0.0
  0
LINE
  5
21C
330
1F
100
AcDbEntity
  8
0
  6
Continuous
 62
     7
100
AcDbLine
 10
191.6586468198343
 20
108.5544652687522
 30
0.0
 11
191.6586468198343
 21
108.4185501220701
 31
0.0
  0
LINE
  5
21D
330
1F
100
AcDbEntity
  8
0
  6
Continuous
 62
     7
100
AcDbLine
 10
161.6734525904888
 20
110.4380538515516
 30
0.0
 11
161.6734525904888
 21
110.3661198715232
 31
0.0
  0
LINE
  5
21E
330
1F
100
AcDbEntity
  8
0
  6
Continuous
 62
     7
100
AcDbLine
 10
161.6734525904888
 20
111.9014984738881
 30
0.0
 11
191.6586468198343
 21
111.9014984738882
 31
0.0
  0
LINE
  5
21F
330
1F
100
AcDbEntity
  8
0
  6
Continuous
 62
     7
100
AcDbLine
 10
191.6586468198343
 20
108.4185501220701
 30
0.0
 11
191.6586468198343
 21
108.4014984738889
 31
0.0
  0
LINE
  5
220
330
1F
100
AcDbEntity
  8
0
  6
Continuous
 62
     7
100
AcDbLine
 10
191.6586468198343
 20
89.90149847389273
 30
0.0
 11
191.6586468198343
 21
91.32498356182367
 31
0.0
  0
LINE
  5
221
330
1F
100
AcDbEntity
  8
0
  6
Continuous
 62
     7
100
AcDbLine
 10
161.6734525904888
 20
110.3661198715232
 30
0.0
 11
191.6586468198343
 21
110.3661198715178
 31
0.0
  0
LINE
  5
222
330
1F
100
AcDbEntity
  8
0
  6
Continuous
 62
     7
100
AcDbLine
 10
186.0586468198343
 20
89.9065325848245
 30
0.0
 11
186.0586468198343
 21
91.32498356182367
 31
0.0
  0
LINE
  5
223
330
1F
100
AcDbEntity
  8
0
  6
Continuous
 62
     7
100
AcDbLine
 10
185.2984396673153
 20
94.16600087093778
 30
0.0
 11
186.0586468198343
 21
94.16600087142612
 31
0.0
  0
LINE
  5
224
330
1F
100
AcDbEntity
  8
0
  6
Continuous
 62
     7
100
AcDbLine
 10
185.1587991479911
 20
100.1660008665734
 30
0.0
 11
186.0586468198343
 21
100.1660008714261
 31
0.0
  0
LINE
  5
225
330
1F
100
AcDbEntity
  8
0
  6
Continuous
 62
     7
100
AcDbLine
 10
186.0586468198343
 20
103.3372607564612
 30
0.0
 11
186.0586468198343
 21
100.1660008714261
 31
0.0
  0
LINE
  5
226
330
1F
100
AcDbEntity
  8
0
  6
Continuous
 62
     7
100
AcDbLine
 10
186.0586468198343
 20
100.1660008714261
 30
0.0
 11
186.0586468198343
 21
91.32498356182367
 31
0.0
  0
LINE
  5
227
330
1F
100
AcDbEntity
  8
0
  6
Continuous
 62
     7
100
AcDbLine
 10
161.6734525904888
 20
111.9014984738881
 30
0.0
 11
161.6734525904888
 21
111.0918681466087
 31
0.0
  0
LINE
  5
228
330
1F
100
AcDbEntity
  8
0
  6
Continuous
 62
     7
100
AcDbLine
 10
184.1586468198343
 20
101.1660008714261
 30
0.0
 11
184.1586468198343
 21
105.3564860246467
 31
0.0
  0
LINE
  5
229
330
1F
100
AcDbEntity
  8
0
  6
Continuous
 62
     7
100
AcDbLine
 10
184.2985919721482
 20
93.14854846495084
 30
0.0
 11
184.1589514539088
 21
101.1485483969842
 31
0.0
  0
LINE
  5
22A
330
1F
100
AcDbEntity
  8
0
  6
Continuous
 62
     7
100
AcDbLine
 10
128.2757371437436
 20
83.66600087142612
 30
0.0
 11
123.8531831835904
 21
83.66600087142612
 31
0.0
  0
LINE
  5
22B
330
1F
100
AcDbEntity
  8
0
  6
Continuous
 62
     7
100
AcDbLine
 10
124.0187016689032
 20
93.14854854417413
 30
0.0
 11
123.8531831835904
 21
83.66600087142612
 31
0.0
  0
LINE
  5
22C
330
1F
100
AcDbEntity
  8
0
  6
Continuous
 62
     7
100
AcDbLine
 10
116.6586468198343
 20
122.401498473889
 30
0.0
 11
116.6586468198343
 21
122.3333749550798
 31
0.0
  0
LINE
  5
22D
330
1F
100
AcDbEntity
  8
0
  6
Continuous
 62
     7
100
AcDbLine
 10
116.6586468198343
 20
122.0342041758631
 30
0.0
 11
116.6586468198343
 21
122.130330345457
 31
0.0
  0
LINE
  5
22E
330
1F
100
AcDbEntity
  8
0
  6
Continuous
 62
     7
100
AcDbLine
 10
116.6586468198343
 20
114.6697992310146
 30
0.0
 11
116.6586468198343
 21
113.7322373942504
 31
0.0
  0
LINE
  5
22F
330
1F
100
AcDbEntity
  8
0
  6
Continuous
 62
     7
100
AcDbLine
 10
116.6586468198343
 20
89.90149847389276
 30
0.0
 11
116.6586468198343
 21
91.32498356182379
 31
0.0
  0
LINE
  5
230
330
1F
100
AcDbEntity
  8
0
  6
Continuous
 62
     7
100
AcDbLine
 10
116.6586468198343
 20
111.9514984738882
 30
0.0
 11
121.1827268525605
 21
111.9514984738882
 31
0.0
  0
LINE
  5
231
330
1F
100
AcDbEntity
  8
0
  6
Continuous
 62
     7
100
AcDbLine
 10
122.2586468198343
 20
89.90653258482453
 30
0.0
 11
122.2586468198343
 21
91.32498356182367
 31
0.0
  0
LINE
  5
232
330
1F
100
AcDbEntity
  8
0
  6
Continuous
 62
     7
100
AcDbLine
 10
122.2586468198343
 20
91.32498356182367
 30
0.0
 11
122.2586468198343
 21
100.1660008714261
 31
0.0
  0
LINE
  5
233
330
1F
100
AcDbEntity
  8
0
  6
Continuous
 62
     7
100
AcDbLine
 10
122.1586468198346
 20
89.90149847389276
 30
0.0
 11
116.6586468198343
 21
89.90149847389276
 31
0.0
  0
LINE
  5
234
330
1F
100
AcDbEntity
  8
0
  6
Continuous
 62
     7
100
AcDbLine
 10
116.6586468198343
 20
111.9514984738882
 30
0.0
 11
116.6586468198343
 21
111.9014984738882
 31
0.0
  0
LINE
  5
235
330
1F
100
AcDbEntity
  8
0
  6
Continuous
 62
     7
100
AcDbLine
 10
117.9136468198343
 20
81.16600087142612
 30
0.0
 11
119.1840678930086
 21
81.16600087142612
 31
0.0
  0
LINE
  5
236
330
1F
100
AcDbEntity
  8
0
  6
Continuous
 62
     7
100
AcDbLine
 10
123.8531831835904
 20
83.66600087142612
 30
0.0
 11
119.21913035377
 21
83.66600087142612
 31
0.0
  0
LINE
  5
237
330
1F
100
AcDbEntity
  8
0
  6
Continuous
 62
     7
100
AcDbLine
 10
119.21913035377
 20
83.66600087142612
 30
0.0
 11
114.719815711105
 21
83.66600087142612
 31
0.0
  0
LINE
  5
238
330
1F
100
AcDbEntity
  8
0
  6
Continuous
 62
     7
100
AcDbLine
 10
114.2198918635268
 20
83.17472707464478
 30
0.0
 11
114.1848294172266
 21
81.16600087142612
 31
0.0
  0
LINE
  5
239
330
1F
100
AcDbEntity
  8
0
  6
Continuous
 62
     7
100
AcDbLine
 10
156.8433255715657
 20
119.1514984738923
 30
0.0
 11
161.1734525904886
 21
111.6514984738925
 31
0.0
  0
LINE
  5
23A
330
1F
100
AcDbEntity
  8
0
  6
Continuous
 62
     7
100
AcDbLine
 10
239.4893311903307
 20
94.48537746501177
 30
0.0
 11
239.4506857003588
 21
93.37871542592882
 31
0.0
  0
LINE
  5
23B
330
1F
100
AcDbEntity
  8
0
  6
Continuous
 62
     7
100
AcDbLine
 10
234.0664796810195
 20
95.53355999189438
 30
0.0
 11
232.491455039165
 21
95.811279331534
 31
0.0
  0
LINE
  5
23C
330
1F
100
AcDbEntity
  8
0
  6
Continuous
 62
     7
100
AcDbLine
 10
236.8716189683618
 20
93.52158365746476
 30
0.0
 11
236.8766080369429
 21
93.37871542592882
 31
0.0
  0
LINE
  5
23D
330
1F
100
AcDbEntity
  8
0
  6
Continuous
 62
     7
100
AcDbLine
 10
236.8136087418274
 20
95.18277919749988
 30
0.0
 11
236.838338377246
 21
94.47461509405971
 31
0.0
  0
LINE
  5
23E
330
1F
100
AcDbEntity
  8
0
  6
Continuous
 62
     7
100
AcDbLine
 10
236.838338377246
 20
94.47461509405971
 30
0.0
 11
236.8716189683618
 21
93.52158365746476
 31
0.0
  0
LINE
  5
23F
330
1F
100
AcDbEntity
  8
0
  6
Continuous
 62
     7
100
AcDbLine
 10
232.5772085493736
 20
99.04552383202818
 30
0.0
 11
234.6221538495536
 21
98.68494480153345
 31
0.0
  0
LINE
  5
240
330
1F
100
AcDbEntity
  8
1
  6
DOT_CENTER
 62
     2
100
AcDbLine
 10
119.1636468198343
 20
86.66600087142612
 30
0.0
 11
119.1636468198343
 21
74.66600087142612
 31
0.0
  0
LINE
  5
241
330
1F
100
AcDbEntity
  8
1
  6
DOT_CENTER
 62
     2
100
AcDbLine
 10
189.1636468198343
 20
86.66600087142612
 30
0.0
 11
189.1636468198343
 21
74.66600087142612
 31
0.0
  0
LINE
  5
242
330
1F
100
AcDbEntity
  8
1
  6
DOT_CENTER
 62
     2
100
AcDbLine
 10
222.1636468686509
 20
86.66600087142612
 30
0.0
 11
222.1636468686509
 21
74.66600087142612
 31
0.0
  0
LINE
  5
243
330
1F
100
AcDbEntity
  8
1
  6
DOT_CENTER
 62
     2
100
AcDbLine
 10
254.1636468686509
 20
86.66600087142612
 30
0.0
 11
254.1636468686509
 21
74.66600087142612
 31
0.0
  0
ARC
  5
244
330
1F
100
AcDbEntity
  8
Sichtbare_Kanten_TC_020513_DIN_
  6
Continuous
 62
     7
100
AcDbCircle
 10
157.1636468198343
 20
87.07056797890914
 30
0.0
 40
0.375
100
AcDbArc
 50
180.0
 51
299.9816393687893
  0
ARC
  5
245
330
1F
100
AcDbEntity
  8
Sichtbare_Kanten_TC_020513_DIN_
  6
Continuous
 62
     7
100
AcDbCircle
 10
159.4136468198343
 20
88.36864490198613
 30
0.0
 40
0.3749999999995153
100
AcDbArc
 50
299.9816393687893
 51
119.9816393689209
  0
ARC
  5
246
330
1F
100
AcDbEntity
  8
Sichtbare_Kanten_TC_020513_DIN_
  6
Continuous
 62
     7
100
AcDbCircle
 10
159.4136468198343
 20
89.66600087142612
 30
0.0
 40
0.375
100
AcDbArc
 50
270.0
 51
90.0
  0
ARC
  5
247
330
1F
100
AcDbEntity
  8
Sichtbare_Kanten_TC_020513_DIN_
  6
Continuous
 62
     7
100
AcDbCircle
 10
159.4136468198343
 20
90.96335684086614
 30
0.0
 40
0.3750000000000124
100
AcDbArc
 50
240.0183606310791
 51
60.01836063120854
  0
ARC
  5
248
330
1F
100
AcDbEntity
  8
Sichtbare_Kanten_TC_020513_DIN_
  6
Continuous
 62
     7
100
AcDbCircle
 10
157.1636468198343
 20
92.26143376394313
 30
0.0
 40
0.3749999999995153
100
AcDbArc
 50
60.01836063121071
 51
180.0
  0
ARC
  5
249
330
1F
100
AcDbEntity
  8
Sichtbare_Kanten_TC_020513_DIN_
  6
Continuous
 62
     7
100
AcDbCircle
 10
149.5886468198343
 20
91.35277991778912
 30
0.0
 40
0.375
100
AcDbArc
 50
0.0
 51
180.0
  0
ARC
  5
24A
330
1F
100
AcDbEntity
  8
Sichtbare_Kanten_TC_020513_DIN_
  6
Continuous
 62
     7
100
AcDbCircle
 10
149.5886468198343
 20
87.97922182506312
 30
0.0
 40
0.375
100
AcDbArc
 50
180.0
 51
0.0
  0
ARC
  5
24B
330
1F
100
AcDbEntity
  8
Sichtbare_Kanten_TC_020513_DIN_
  6
Continuous
 62
     7
100
AcDbCircle
 10
151.0886468198343
 20
87.11383720967814
 30
0.0
 40
0.375
100
AcDbArc
 50
180.0
 51
240.0183606310903
  0
ARC
  5
24C
330
1F
100
AcDbEntity
  8
Sichtbare_Kanten_TC_020513_DIN_
  6
Continuous
 62
     7
100
AcDbCircle
 10
154.1636468198343
 20
85.33979874814014
 30
0.0
 40
0.3750000000000124
100
AcDbArc
 50
240.0183606310791
 51
60.01836063121071
  0
ARC
  5
24D
330
1F
100
AcDbEntity
  8
Sichtbare_Kanten_TC_020513_DIN_
  6
Continuous
 62
     7
100
AcDbCircle
 10
151.0886468198343
 20
92.21816453317413
 30
0.0
 40
0.375
100
AcDbArc
 50
0.0
 51
180.0
  0
ARC
  5
24E
330
1F
100
AcDbEntity
  8
Sichtbare_Kanten_TC_020513_DIN_
  6
Continuous
 62
     7
100
AcDbCircle
 10
155.6636468198343
 20
86.20518336352512
 30
0.0
 40
0.375
100
AcDbArc
 50
180.0
 51
0.0
  0
ARC
  5
24F
330
1F
100
AcDbEntity
  8
Sichtbare_Kanten_TC_020513_DIN_
  6
Continuous
 62
     7
100
AcDbCircle
 10
155.6636468198343
 20
93.12681837932811
 30
0.0
 40
0.375
100
AcDbArc
 50
0.0
 51
144.0904238230432
  0
ARC
  5
250
330
1F
100
AcDbEntity
  8
Sichtbare_Kanten_TC_020513_DIN_
  6
Continuous
 62
     7
100
AcDbCircle
 10
152.6636468198343
 20
93.12681837932811
 30
0.0
 40
0.3749999999994408
100
AcDbArc
 50
35.90957617703826
 51
180.0
  0
ARC
  5
251
330
1F
100
AcDbEntity
  8
Sichtbare_Kanten_TC_020513_DIN_
  6
Continuous
 62
     7
100
AcDbCircle
 10
152.6636468198343
 20
87.97922182506312
 30
0.0
 40
0.375
100
AcDbArc
 50
180.0
 51
0.0
  0
ARC
  5
252
330
1F
100
AcDbEntity
  8
0
  6
Continuous
 62
     7
100
AcDbCircle
 10
252.5163921179018
 20
112.2014982351747
 30
0.0
 40
7.707540238715638
100
AcDbArc
 50
223.8323393907887
 51
87.46545028842118
  0
ARC
  5
253
330
1F
100
AcDbEntity
  8
0
  6
Continuous
 62
     7
100
AcDbCircle
 10
265.2239323566213
 20
115.4014984738914
 30
0.0
 40
6.999999999999988
100
AcDbArc
 50
32.39236548585863
 51
33.99999999996897
  0
ARC
  5
254
330
1F
100
AcDbEntity
  8
0
  6
Continuous
 62
     7
100
AcDbCircle
 10
265.2239323566261
 20
115.4014984738877
 30
0.0
 40
4.5
100
AcDbArc
 50
269.9999999999913
 51
89.99999999999494
  0
ARC
  5
255
330
1F
100
AcDbEntity
  8
0
  6
Continuous
 62
     7
100
AcDbCircle
 10
265.2239323566229
 20
115.4014984738889
 30
0.0
 40
6.900000000000042
100
AcDbArc
 50
33.99999999999319
 51
41.99999999999426
  0
ARC
  5
256
330
1F
100
AcDbEntity
  8
0
  6
Continuous
 62
     7
100
AcDbCircle
 10
265.2239323566229
 20
115.4014984738889
 30
0.0
 40
6.999999999999974
100
AcDbArc
 50
273.9999999999928
 51
281.9999999999932
  0
ARC
  5
257
330
1F
100
AcDbEntity
  8
0
  6
Continuous
 62
     7
100
AcDbCircle
 10
265.2239323566229
 20
115.4014984738889
 30
0.0
 40
6.900000000000054
100
AcDbArc
 50
297.9999999999936
 51
305.9999999999931
  0
ARC
  5
258
330
1F
100
AcDbEntity
  8
0
  6
Continuous
 62
     7
100
AcDbCircle
 10
265.2239323566229
 20
115.4014984738889
 30
0.0
 40
6.999999999999963
100
AcDbArc
 50
289.9999999999932
 51
297.9999999999927
  0
ARC
  5
259
330
1F
100
AcDbEntity
  8
0
  6
Continuous
 62
     7
100
AcDbCircle
 10
265.2239323566229
 20
115.4014984738889
 30
0.0
 40
6.899999999999962
100
AcDbArc
 50
281.9999999999927
 51
289.9999999999937
  0
ARC
  5
25A
330
1F
100
AcDbEntity
  8
0
  6
Continuous
 62
     7
100
AcDbCircle
 10
263.7239323566174
 20
111.9014984738878
 30
0.0
 40
1.0
100
AcDbArc
 50
179.9999999999886
 51
269.999999999987
  0
ARC
  5
25B
330
1F
100
AcDbEntity
  8
0
  6
Continuous
 62
     7
100
AcDbCircle
 10
265.2239323566229
 20
115.4014984738889
 30
0.0
 40
6.89999999999996
100
AcDbArc
 50
313.9999999999923
 51
321.999999999993
  0
ARC
  5
25C
330
1F
100
AcDbEntity
  8
0
  6
Continuous
 62
     7
100
AcDbCircle
 10
265.2239323566229
 20
115.4014984738889
 30
0.0
 40
6.999999999999945
100
AcDbArc
 50
305.9999999999927
 51
313.9999999999926
  0
ARC
  5
25D
330
1F
100
AcDbEntity
  8
0
  6
Continuous
 62
     7
100
AcDbCircle
 10
265.2239323566229
 20
115.4014984738889
 30
0.0
 40
6.900000000000006
100
AcDbArc
 50
269.9999999999925
 51
273.9999999999917
  0
ARC
  5
25E
330
1F
100
AcDbEntity
  8
0
  6
Continuous
 62
     7
100
AcDbCircle
 10
259.4777618776017
 20
83.1660008757662
 30
0.0
 40
0.4999999956600062
100
AcDbArc
 50
0.99999951126706
 51
89.99999949161932
  0
ARC
  5
25F
330
1F
100
AcDbEntity
  8
0
  6
Continuous
 62
     7
100
AcDbCircle
 10
237.2239323566213
 20
97.40149847389279
 30
0.0
 40
5.09999999999985
100
AcDbArc
 50
196.6728220305497
 51
162.823324352324
  0
ARC
  5
260
330
1F
100
AcDbEntity
  8
0
  6
Continuous
 62
     7
100
AcDbCircle
 10
237.2239323566213
 20
97.40149847389279
 30
0.0
 40
7.499999999999992
100
AcDbArc
 50
85.44224388559303
 51
305.8843290873103
  0
ARC
  5
261
330
1F
100
AcDbEntity
  8
0
  6
Continuous
 62
     7
100
AcDbCircle
 10
237.2239323566213
 20
96.60149847389283
 30
0.0
 40
3.099999999999945
100
AcDbArc
 50
316.9513051716391
 51
347.7144898340903
  0
ARC
  5
262
330
1F
100
AcDbEntity
  8
0
  6
Continuous
 62
     7
100
AcDbCircle
 10
265.2239323566229
 20
115.4014984738889
 30
0.0
 40
7.299999999999891
100
AcDbArc
 50
345.3197412543717
 51
0.39243991447191
  0
ARC
  5
263
330
1F
100
AcDbEntity
  8
0
  6
Continuous
 62
     7
100
AcDbCircle
 10
265.2239323566226
 20
115.4014984738902
 30
0.0
 40
7.300000000000173
100
AcDbArc
 50
0.39243991446174
 51
7.47750829954151
  0
ARC
  5
264
330
1F
100
AcDbEntity
  8
0
  6
Continuous
 62
     7
100
AcDbCircle
 10
265.2239323566229
 20
115.4014984738889
 30
0.0
 40
7.299999999999823
100
AcDbArc
 50
337.8698151872409
 51
345.3197412543717
  0
ARC
  5
265
330
1F
100
AcDbEntity
  8
0
  6
Continuous
 62
     7
100
AcDbCircle
 10
265.2239323566229
 20
115.4014984738889
 30
0.0
 40
7.300000000000141
100
AcDbArc
 50
7.47750829955192
 51
22.98007287821509
  0
ARC
  5
266
330
1F
100
AcDbEntity
  8
0
  6
Continuous
 62
     7
100
AcDbCircle
 10
263.7239323566181
 20
118.901498473888
 30
0.0
 40
1.0
100
AcDbArc
 50
89.99999999998697
 51
179.9999999999943
  0
ARC
  5
267
330
1F
100
AcDbEntity
  8
0
  6
Continuous
 62
     7
100
AcDbCircle
 10
265.2239323566229
 20
115.4014984738889
 30
0.0
 40
6.900000000000047
100
AcDbArc
 50
81.9999999999946
 51
89.99999999999433
  0
ARC
  5
268
330
1F
100
AcDbEntity
  8
0
  6
Continuous
 62
     7
100
AcDbCircle
 10
265.2239323566229
 20
115.4014984738889
 30
0.0
 40
7.000000000000024
100
AcDbArc
 50
73.99999999999513
 51
81.99999999999591
  0
ARC
  5
269
330
1F
100
AcDbEntity
  8
0
  6
Continuous
 62
     7
100
AcDbCircle
 10
265.2239323566229
 20
115.4014984738889
 30
0.0
 40
6.899999999999953
100
AcDbArc
 50
17.99999999999367
 51
24.39616528278204
  0
ARC
  5
26A
330
1F
100
AcDbEntity
  8
0
  6
Continuous
 62
     7
100
AcDbCircle
 10
265.2239323566229
 20
115.4014984738889
 30
0.0
 40
6.899999999999994
100
AcDbArc
 50
1.99999999999364
 51
7.91368707072664
  0
ARC
  5
26B
330
1F
100
AcDbEntity
  8
0
  6
Continuous
 62
     7
100
AcDbCircle
 10
265.2239323566249
 20
115.4014984738927
 30
0.0
 40
6.900000000000152
100
AcDbArc
 50
329.9999999999575
 51
330.4081542058888
  0
ARC
  5
26C
330
1F
100
AcDbEntity
  8
0
  6
Continuous
 62
     7
100
AcDbCircle
 10
265.2239323566229
 20
115.4014984738889
 30
0.0
 40
6.899999999999915
100
AcDbArc
 50
330.4081542059243
 51
336.5123915070406
  0
ARC
  5
26D
330
1F
100
AcDbEntity
  8
0
  6
Continuous
 62
     7
100
AcDbCircle
 10
265.2239323566229
 20
115.4014984738889
 30
0.0
 40
7.29999999999986
100
AcDbArc
 50
329.0894907778872
 51
337.8698151872409
  0
ARC
  5
26E
330
1F
100
AcDbEntity
  8
0
  6
Continuous
 62
     7
100
AcDbCircle
 10
265.2239323566229
 20
115.4014984738889
 30
0.0
 40
6.899999999999884
100
AcDbArc
 50
345.999999999993
 51
353.9999999999931
  0
ARC
  5
26F
330
1F
100
AcDbEntity
  8
0
  6
Continuous
 62
     7
100
AcDbCircle
 10
265.2239323566236
 20
115.4014984738844
 30
0.0
 40
6.899999999999989
100
AcDbArc
 50
7.91368707076447
 51
10.00000000003113
  0
ARC
  5
270
330
1F
100
AcDbEntity
  8
0
  6
Continuous
 62
     7
100
AcDbCircle
 10
265.2239323566213
 20
115.4014984738914
 30
0.0
 40
6.900000000000301
100
AcDbArc
 50
24.39616528275758
 51
25.99999999997051
  0
ARC
  5
271
330
1F
100
AcDbEntity
  8
0
  6
Continuous
 62
     7
100
AcDbCircle
 10
265.2239323566229
 20
115.4014984738889
 30
0.0
 40
7.000000000000163
100
AcDbArc
 50
41.99999999999429
 51
49.99999999999382
  0
ARC
  5
272
330
1F
100
AcDbEntity
  8
0
  6
Continuous
 62
     7
100
AcDbCircle
 10
265.2239323566229
 20
115.4014984738889
 30
0.0
 40
6.900000000000002
100
AcDbArc
 50
49.9999999999928
 51
57.9999999999953
  0
ARC
  5
273
330
1F
100
AcDbEntity
  8
0
  6
Continuous
 62
     7
100
AcDbCircle
 10
265.2239323566229
 20
115.4014984738889
 30
0.0
 40
6.899999999999817
100
AcDbArc
 50
336.5123915070406
 51
337.9999999999931
  0
ARC
  5
274
330
1F
100
AcDbEntity
  8
0
  6
Continuous
 62
     7
100
AcDbCircle
 10
265.2239323566229
 20
115.4014984738889
 30
0.0
 40
6.999999999999964
100
AcDbArc
 50
57.99999999999438
 51
65.99999999999415
  0
ARC
  5
275
330
1F
100
AcDbEntity
  8
0
  6
Continuous
 62
     7
100
AcDbCircle
 10
265.2239323566229
 20
115.4014984738889
 30
0.0
 40
6.999999999999839
100
AcDbArc
 50
353.9999999999937
 51
1.99999999999411
  0
ARC
  5
276
330
1F
100
AcDbEntity
  8
0
  6
Continuous
 62
     7
100
AcDbCircle
 10
265.2239323566229
 20
115.4014984738889
 30
0.0
 40
6.900000000000021
100
AcDbArc
 50
65.99999999999432
 51
73.99999999999247
  0
ARC
  5
277
330
1F
100
AcDbEntity
  8
0
  6
Continuous
 62
     7
100
AcDbCircle
 10
265.2239323566229
 20
115.4014984738889
 30
0.0
 40
6.999999999999914
100
AcDbArc
 50
9.99999999999417
 51
17.99999999999479
  0
ARC
  5
278
330
1F
100
AcDbEntity
  8
0
  6
Continuous
 62
     7
100
AcDbCircle
 10
265.2239323566229
 20
115.4014984738889
 30
0.0
 40
6.999999999999882
100
AcDbArc
 50
25.99999999999459
 51
32.39236548588305
  0
ARC
  5
279
330
1F
100
AcDbEntity
  8
0
  6
Continuous
 62
     7
100
AcDbCircle
 10
265.2239323566229
 20
115.4014984738889
 30
0.0
 40
6.999999999999902
100
AcDbArc
 50
321.9999999999932
 51
329.999999999993
  0
ARC
  5
27A
330
1F
100
AcDbEntity
  8
0
  6
Continuous
 62
     7
100
AcDbCircle
 10
265.2239323566229
 20
115.4014984738889
 30
0.0
 40
7.000000000000074
100
AcDbArc
 50
337.9999999999939
 51
345.9999999999936
  0
ARC
  5
27B
330
1F
100
AcDbEntity
  8
0
  6
Continuous
 62
     7
100
AcDbCircle
 10
265.2239323566229
 20
115.4014984738889
 30
0.0
 40
7.300000000000001
100
AcDbArc
 50
22.98007287821509
 51
30.91050922217428
  0
ARC
  5
27C
330
1F
100
AcDbEntity
  8
0
  6
Continuous
 62
     7
100
AcDbCircle
 10
216.8495318620892
 20
83.16600087333484
 30
0.0
 40
0.4999999980912833
100
AcDbArc
 50
90.0000002197976
 51
179.0000002198032
  0
ARC
  5
27D
330
1F
100
AcDbEntity
  8
0
  6
Continuous
 62
     7
100
AcDbCircle
 10
232.4239323566268
 20
118.4014984738905
 30
0.0
 40
4.000000000002203
100
AcDbArc
 50
90.00000000002606
 51
179.9999999999685
  0
ARC
  5
27E
330
1F
100
AcDbEntity
  8
0
  6
Continuous
 62
     7
100
AcDbCircle
 10
231.9344102387363
 20
116.9195163560138
 30
0.0
 40
1.010477882108603
100
AcDbArc
 50
179.9999999999944
 51
303.8180741014706
  0
ARC
  5
27F
330
1F
100
AcDbEntity
  8
0
  6
Continuous
 62
     7
100
AcDbCircle
 10
232.4239323566268
 20
118.4014984738905
 30
0.0
 40
1.500000000000995
100
AcDbArc
 50
89.99999999995876
 51
179.999999999962
  0
ARC
  5
280
330
1F
100
AcDbEntity
  8
0
  6
Continuous
 62
     7
100
AcDbCircle
 10
235.2239323566233
 20
111.2014984738942
 30
0.0
 40
2.399999999999484
100
AcDbArc
 50
19.99999999999918
 51
121.0482219934554
  0
ARC
  5
281
330
1F
100
AcDbEntity
  8
0
  6
Continuous
 62
     7
100
AcDbCircle
 10
231.9239323566238
 20
116.1014984738943
 30
0.0
 40
3.499999999999289
100
AcDbArc
 50
180.0000000000016
 51
301.0482219934821
  0
ARC
  5
282
330
1F
100
AcDbEntity
  8
0
  6
Continuous
 62
     7
100
AcDbCircle
 10
237.9391082002127
 20
106.3730381139291
 30
0.0
 40
1.499999999999982
100
AcDbArc
 50
265.4422438855887
 51
20.00000000000214
  0
ARC
  5
283
330
1F
100
AcDbEntity
  8
0
  6
Continuous
 62
     7
100
AcDbCircle
 10
235.2239323566267
 20
112.0090384738931
 30
0.0
 40
4.899999999999477
100
AcDbArc
 50
43.83233939078878
 51
123.8180741014745
  0
ARC
  5
284
330
1F
100
AcDbEntity
  8
0
  6
Continuous
 62
     7
100
AcDbCircle
 10
238.1818551801031
 20
97.15455547389283
 30
0.0
 40
2.399999999999924
100
AcDbArc
 50
303.6804116938042
 51
329.6496937724594
  0
ARC
  5
285
330
1F
100
AcDbEntity
  8
0
  6
Continuous
 62
     7
100
AcDbCircle
 10
238.1818551801031
 20
97.15455547389283
 30
0.0
 40
2.400000000000035
100
AcDbArc
 50
329.6496937724594
 51
90.35030622754253
  0
ARC
  5
286
330
1F
100
AcDbEntity
  8
0
  6
Continuous
 62
     7
100
AcDbCircle
 10
193.5974779285635
 20
83.16600087142615
 30
0.0
 40
0.5000000000001092
100
AcDbArc
 50
0.99999998033347
 51
90.0
  0
ARC
  5
287
330
1F
100
AcDbEntity
  8
0
  6
Continuous
 62
     7
100
AcDbCircle
 10
114.719815711105
 20
83.16600087142612
 30
0.0
 40
0.5
100
AcDbArc
 50
90.0
 51
178.9999999999983
  0
ARC
  5
288
330
1F
100
AcDbEntity
  8
0
  6
Continuous
 62
     7
100
AcDbCircle
 10
237.223932356619
 20
97.40149847390029
 30
0.0
 40
5.099999999999815
100
AcDbArc
 50
196.5192987100579
 51
196.6728220306378
  0
ARC
  5
289
330
1F
100
AcDbEntity
  8
0
  6
Continuous
 62
     7
100
AcDbCircle
 10
237.2239323566213
 20
97.40149847389279
 30
0.0
 40
5.099999999999949
100
AcDbArc
 50
162.823324352324
 51
196.5192987099697
  0
ARC
  5
28A
330
1F
100
AcDbEntity
  8
0
  6
Continuous
 62
     7
100
AcDbCircle
 10
238.1636468686507
 20
97.16600087142612
 30
0.0
 40
3.000000000000015
100
AcDbArc
 50
126.1554631665546
 51
243.7831633773921
  0
ARC
  5
28B
330
1F
100
AcDbEntity
  8
0
  6
Continuous
 62
     7
100
AcDbCircle
 10
237.2239323566213
 20
96.60149847389283
 30
0.0
 40
3.100000000000001
100
AcDbArc
 50
72.28551016590843
 51
105.5341664692442
  0
ARC
  5
28C
330
1F
100
AcDbEntity
  8
0
  6
Continuous
 62
     7
100
AcDbCircle
 10
232.5261846746984
 20
96.00824088213648
 30
0.0
 40
0.2000000000000431
100
AcDbArc
 50
196.5192987099846
 51
259.9999999999953
  0
ARC
  5
28D
330
1F
100
AcDbEntity
  8
0
  6
Continuous
 62
     7
100
AcDbCircle
 10
238.1636468686507
 20
97.16600087142612
 30
0.0
 40
3.999999999999928
100
AcDbArc
 50
251.2306220080334
 51
288.7693779919712
  0
ARC
  5
28E
330
1F
100
AcDbEntity
  8
0
  6
Continuous
 62
     7
100
AcDbCircle
 10
237.2239323566213
 20
96.60149847389283
 30
0.0
 40
3.09999999999985
100
AcDbArc
 50
205.6853347126542
 51
263.4742647384506
  0
ARC
  5
28F
330
1F
100
AcDbEntity
  8
0
  6
Continuous
 62
     7
100
AcDbCircle
 10
233.9796555921859
 20
95.04115611538833
 30
0.0
 40
0.4999999999999826
100
AcDbArc
 50
25.68533471264678
 51
79.99999999998421
  0
ARC
  5
290
330
1F
100
AcDbEntity
  8
0
  6
Continuous
 62
     7
100
AcDbCircle
 10
232.5424789138402
 20
98.8485622814257
 30
0.0
 40
0.2000000000000428
100
AcDbArc
 50
79.99999999999535
 51
162.8233243523323
  0
ARC
  5
291
330
1F
100
AcDbEntity
  8
0
  6
Continuous
 62
     7
100
AcDbCircle
 10
237.2239323566213
 20
96.60149847389283
 30
0.0
 40
3.100000000000021
100
AcDbArc
 50
105.5341664692442
 51
134.3146652873477
  0
ARC
  5
292
330
1F
100
AcDbEntity
  8
0
  6
Continuous
 62
     7
100
AcDbCircle
 10
234.708977938387
 20
99.17734867803958
 30
0.0
 40
0.5000000000000147
100
AcDbArc
 50
260.0000000000084
 51
314.3146652873379
  0
ARC
  5
293
330
1F
100
AcDbEntity
  8
0
  6
Continuous
 62
     7
100
AcDbCircle
 10
238.1818551801031
 20
97.15455547389283
 30
0.0
 40
2.400000000000003
100
AcDbArc
 50
90.35030622754253
 51
235.2426135653243
  0
ARC
  5
294
330
1F
100
AcDbEntity
  8
1
  6
DASHED
 62
     2
100
AcDbCircle
 10
237.2239323566213
 20
97.40149847389279
 30
0.0
 40
40.58359793129518
100
AcDbArc
 50
32.40705784042153
 51
47.66457937527904
  0
ARC
  5
295
330
1F
100
AcDbEntity
  8
1
  6
DASHED
 62
     2
100
AcDbCircle
 10
237.2239323566213
 20
97.40149847389279
 30
0.0
 40
40.5835979312952
100
AcDbArc
 50
0.0
 51
32.40705784042153
  0
CIRCLE
  5
296
330
1F
100
AcDbEntity
  8
Skizziergeometrie_TC_020513_DIN_
  6
Continuous
 62
     7
100
AcDbCircle
 10
63.4718038251267
 20
155.990104493299
 30
0.0
 40
2.25
  0
CIRCLE
  5
297
330
1F
100
AcDbEntity
  8
Skizziergeometrie_TC_020513_DIN_
  6
Continuous
 62
     7
100
AcDbCircle
 10
63.4718038251267
 20
85.99010449329904
 30
0.0
 40
2.25
  0
CIRCLE
  5
298
330
1F
100
AcDbEntity
  8
Skizziergeometrie_TC_020513_DIN_
  6
Continuous
 62
     7
100
AcDbCircle
 10
31.47180382512642
 20
85.99010449329904
 30
0.0
 40
2.250000000000004
  0
CIRCLE
  5
299
330
1F
100
AcDbEntity
  8
Skizziergeometrie_TC_020513_DIN_
  6
Continuous
 62
     7
100
AcDbCircle
 10
31.47180382512642
 20
155.990104493299
 30
0.0
 40
2.250000000000004
  0
CIRCLE
  5
29A
330
1F
100
AcDbEntity
  8
0
  6
Continuous
 62
     7
100
AcDbCircle
 10
245.7239323566249
 20
101.4014984738903
 30
0.0
 40
3.0
  0
SPLINE
  5
29B
330
1F
100
AcDbEntity
  8
0
  6
Continuous
 62
     7
100
AcDbSpline
210
0.0
220
0.0
230
1.0
 70
    24
 71
     3
 72
    17
 73
    13
 74
    11
 42
0.000000001
 43
0.0000000001
 44
0.00000001
 40
0.0
 40
0.0
 40
0.0
 40
0.0
 40
0.0603613800744824
 40
0.1205235258693733
 40
0.9421674163068019
 40
1.702294767452429
 40
2.391109257997527
 40
2.995116283087441
 40
3.502992789505811
 40
3.908199783400732
 40
4.174560006758099
 40
4.440920230115296
 40
4.440920230115296
 40
4.440920230115296
 40
4.440920230115296
 10
255.2227266385354
 20
101.1660008714261
 30
0.0
 10
255.2428470985603
 20
101.1660008714261
 30
0.0
 10
255.2830216071832
 20
101.1660008714261
 30
0.0
 10
255.5970774126194
 20
101.1660008714266
 30
0.0
 10
256.1443885417448
 20
101.1660008714266
 30
0.0
 10
256.9012504524543
 20
101.1660008714265
 30
0.0
 10
257.5855667413811
 20
101.1660008714262
 30
0.0
 10
258.185799415399
 20
101.166000871426
 30
0.0
 10
258.6914962572001
 20
101.166000871426
 30
0.0
 10
259.0846441650903
 20
101.166000871426
 30
0.0
 10
259.3972866452934
 20
101.1660008714262
 30
0.0
 10
259.5748601275317
 20
101.1660008714263
 30
0.0
 10
259.6636468686507
 20
101.1660008714264
 30
0.0
 11
255.2227266385354
 21
101.1660008714261
 31
0.0
 11
255.2830880186097
 21
101.1660008714261
 31
0.0
 11
255.3432501644044
 21
101.1660008714261
 31
0.0
 11
256.1648940548401
 21
101.1660008714261
 31
0.0
 11
256.9250214059852
 21
101.1660008714261
 31
0.0
 11
257.6138358965305
 21
101.1660008714261
 31
0.0
 11
258.2178429216209
 21
101.1660008714261
 31
0.0
 11
258.7257194280399
 21
101.1660008714261
 31
0.0
 11
259.1309264219354
 21
101.1660008714261
 31
0.0
 11
259.3972866452931
 21
101.1660008714261
 31
0.0
 11
259.6636468686507
 21
101.1660008714264
 31
0.0
  0
SPLINE
  5
29C
330
1F
100
AcDbEntity
  8
0
  6
Continuous
 62
     7
100
AcDbSpline
210
0.0
220
0.0
230
1.0
 70
    24
 71
     3
 72
    15
 73
    11
 74
     9
 42
0.000000001
 43
0.0000000001
 44
0.00000001
 40
0.0
 40
0.0
 40
0.0
 40
0.0
 40
0.2663602233576228
 40
0.5327204467153308
 40
1.179440691870724
 40
2.049810972120241
 40
3.110387300744918
 40
4.320396704246548
 40
5.633431865802464
 40
6.998933866094717
 40
6.998933866094717
 40
6.998933866094717
 40
6.998933866094717
 10
216.6636468686509
 20
101.1660008714261
 30
0.0
 10
216.7524336097701
 20
101.1660008714261
 30
0.0
 10
216.9300070920085
 20
101.1660008714261
 30
0.0
 10
217.3231539892988
 20
101.1660008714261
 30
0.0
 10
217.9176375722196
 20
101.166000871426
 30
0.0
 10
218.7768598568962
 20
101.1660008714261
 30
0.0
 10
219.8238451943548
 20
101.1660008714261
 30
0.0
 10
221.0183854922488
 20
101.1660008714261
 30
0.0
 10
222.3145676806988
 20
101.1660008714262
 30
0.0
 10
223.2074134013149
 20
101.1660008714261
 30
0.0
 10
223.6625807347456
 20
101.1660008714261
 30
0.0
 11
216.6636468686509
 21
101.1660008714261
 31
0.0
 11
216.9300070920085
 21
101.1660008714261
 31
0.0
 11
217.1963673153662
 21
101.1660008714261
 31
0.0
 11
217.8430875605216
 21
101.1660008714261
 31
0.0
 11
218.7134578407711
 21
101.1660008714261
 31
0.0
 11
219.7740341693958
 21
101.1660008714261
 31
0.0
 11
220.9840435728974
 21
101.1660008714261
 31
0.0
 11
222.2970787344533
 21
101.1660008714261
 31
0.0
 11
223.6625807347456
 21
101.1660008714261
 31
0.0
  0
SPLINE
  5
29D
330
1F
100
AcDbEntity
  8
0
  6
Continuous
 62
     7
100
AcDbSpline
210
0.0
220
0.0
230
1.0
 70
    24
 71
     3
 72
    15
 73
    11
 74
     9
 42
0.000000001
 43
0.0000000001
 44
0.00000001
 40
0.0
 40
0.0
 40
0.0
 40
0.0
 40
0.266360223357708
 40
0.5327204467153877
 40
1.179440691870951
 40
2.049810972120483
 40
3.110387300745089
 40
4.320396704246548
 40
5.633431865802464
 40
6.998933866094688
 40
6.998933866094688
 40
6.998933866094688
 40
6.998933866094688
 10
124.1586468198343
 20
101.1660008714261
 30
0.0
 10
124.2474335609536
 20
101.1660008714261
 30
0.0
 10
124.425007043192
 20
101.1660008714261
 30
0.0
 10
124.8181539404823
 20
101.1660008714262
 30
0.0
 10
125.4126375234032
 20
101.1660008714262
 30
0.0
 10
126.2718598080798
 20
101.1660008714263
 30
0.0
 10
127.3188451455383
 20
101.1660008714262
 30
0.0
 10
128.5133854434323
 20
101.1660008714261
 30
0.0
 10
129.8095676318822
 20
101.1660008714262
 30
0.0
 10
130.7024133524982
 20
101.1660008714263
 30
0.0
 10
131.157580685929
 20
101.1660008714264
 30
0.0
 11
124.1586468198343
 21
101.1660008714261
 31
0.0
 11
124.425007043192
 21
101.1660008714261
 31
0.0
 11
124.6913672665496
 21
101.1660008714261
 31
0.0
 11
125.3380875117051
 21
101.1660008714261
 31
0.0
 11
126.2084577919546
 21
101.1660008714261
 31
0.0
 11
127.2690341205792
 21
101.1660008714261
 31
0.0
 11
128.4790435240808
 21
101.1660008714261
 31
0.0
 11
129.7920786856368
 21
101.1660008714261
 31
0.0
 11
131.157580685929
 21
101.1660008714264
 31
0.0
  0
SPLINE
  5
29E
330
1F
100
AcDbEntity
  8
0
  6
Continuous
 62
     7
100
AcDbSpline
210
0.0
220
0.0
230
1.0
 70
     8
 71
     3
 72
    23
 73
    19
 74
    17
 42
0.000000001
 43
0.0000000001
 44
0.00000001
 40
0.0
 40
0.0
 40
0.0
 40
0.0
 40
0.1866471513870091
 40
0.3732083333213
 40
0.5743809861085386
 40
0.7755282425319009
 40
0.8863272463678149
 40
0.9790060438574393
 40
1.031437377124912
 40
1.079474084026346
 40
1.129171434301398
 40
1.178417612222469
 40
1.224030873663654
 40
1.27540108056529
 40
1.323027637443157
 40
1.370041341718788
 40
1.46826268695014
 40
1.551936524812717
 40
1.551936524812717
 40
1.551936524812717
 40
1.551936524812717
 10
123.1584944918463
 20
100.1660008738329
 30
0.0
 10
123.2208010296354
 20
100.1693735367816
 30
0.0
 10
123.3453854055415
 20
100.1761173236976
 30
0.0
 10
123.5304376876711
 20
100.2314057490737
 30
0.0
 10
123.7062324690711
 20
100.3210930687147
 30
0.0
 10
123.8406181278678
 20
100.4290538563919
 30
0.0
 10
123.9315770253375
 20
100.5289445604899
 30
0.0
 10
123.9823821473687
 20
100.5976371864993
 30
0.0
 10
124.0168252798158
 20
100.6520613859477
 30
0.0
 10
124.0414459370655
 20
100.6956655234251
 30
0.0
 10
124.0634290304508
 20
100.7394726596443
 30
0.0
 10
124.0828950332004
 20
100.783572888229
 30
0.0
 10
124.1004453450506
 20
100.8290646816139
 30
0.0
 10
124.1156007884559
 20
100.874845378285
 30
0.0
 10
124.1286080252177
 20
100.9217680691301
 30
0.0
 10
124.1427677965818
 20
100.9844835799697
 30
0.0
 10
124.1546408975754
 20
101.0600556337588
 30
0.0
 10
124.1571760125143
 20
101.1206666926648
 30
0.0
 10
124.1583421869382
 20
101.1485484644979
 30
0.0
 11
123.1584944918463
 21
100.1660008738329
 31
0.0
 11
123.3443272868366
 21
100.1834172986691
 31
0.0
 11
123.5236069474364
 21
100.2350300730353
 31
0.0
 11
123.7025559740234
 21
100.3269413491383
 31
0.0
 11
123.8594681300518
 21
100.4527936219477
 31
0.0
 11
123.9340654699907
 21
100.5347183207388
 31
0.0
 11
123.9891766154711
 21
100.6092308784395
 31
0.0
 11
124.0172157877743
 21
100.6535349364989
 31
0.0
 11
124.040833872395
 21
100.6953644873029
 31
0.0
 11
124.0631244577053
 21
100.7397824618977
 31
0.0
 11
124.0830099343096
 21
100.7848352520292
 31
0.0
 11
124.0994279706222
 21
100.8273913061134
 31
0.0
 11
124.1155741570632
 21
100.8761580865305
 31
0.0
 11
124.1282871802974
 21
100.9220565397856
 31
0.0
 11
124.1386801948469
 21
100.9679070980828
 31
0.0
 11
124.1533836600832
 21
101.0650216753934
 31
0.0
 11
124.1583421869382
 21
101.1485484644979
 31
0.0
  0
SPLINE
  5
29F
330
1F
100
AcDbEntity
  8
0
  6
Continuous
 62
     7
100
AcDbSpline
210
0.0
220
0.0
230
1.0
 70
     8
 71
     3
 72
    25
 73
    21
 74
    19
 42
0.000000001
 43
0.0000000001
 44
0.00000001
 40
0.0
 40
0.0
 40
0.0
 40
0.0
 40
0.0929778474888651
 40
0.1855521634583749
 40
0.2313810168506119
 40
0.2821835095302959
 40
0.3347735671045668
 40
0.3813221378066198
 40
0.5873193181608292
 40
0.7933106452574168
 40
0.9070814721917275
 40
1.001794576418205
 40
1.094704773776889
 40
1.205842157278127
 40
1.252390329089736
 40
1.304979812047659
 40
1.355781611474998
 40
1.401609786671715
 40
1.486948301975739
 40
1.587158581757379
 40
1.587158581757379
 40
1.587158581757379
 40
1.587158581757379
 10
124.0187016689032
 20
93.14854854417413
 30
0.0
 10
124.0184131219141
 20
93.17956131141926
 30
0.0
 10
124.0178372656574
 20
93.24145224751521
 30
0.0
 10
124.0080060347115
 20
93.31813433932575
 30
0.0
 10
123.9960810710393
 20
93.38007132062921
 30
0.0
 10
123.984270581199
 20
93.42841497881146
 30
0.0
 10
123.9699196949005
 20
93.47631709358919
 30
0.0
 10
123.935936396938
 20
93.57220013010564
 30
0.0
 10
123.8665894935299
 20
93.70977245586369
 30
0.0
 10
123.7564382195211
 20
93.84774798375082
 30
0.0
 10
123.653947080576
 20
93.9407925893795
 30
0.0
 10
123.5728169730403
 20
94.0003087564692
 30
0.0
 10
123.487239709859
 20
94.05149907150081
 30
0.0
 10
123.4113787744173
 20
94.08693398115852
 30
0.0
 10
123.345716280818
 20
94.11150686677965
 30
0.0
 10
123.2980736682916
 20
94.12669015397225
 30
0.0
 10
123.2499440125306
 20
94.13934317455863
 30
0.0
 10
123.1905844645772
 20
94.15184758370745
 30
0.0
 10
123.1141479297335
 20
94.1632800195137
 30
0.0
 10
123.0522717535528
 20
94.16504673073746
 30
0.0
 10
123.0188539725626
 20
94.16600087993845
 30
0.0
 11
124.0187016689032
 21
93.14854854417413
 31
0.0
 11
124.0160010337236
 21
93.24148716371789
 31
0.0
 11
124.0047481900847
 21
93.33337501788901
 31
0.0
 11
123.9960441618296
 21
93.37836972583138
 31
0.0
 11
123.9839986314581
 21
93.42772353532462
 31
0.0
 11
123.96890457271
 21
93.47810094687289
 31
0.0
 11
123.9533523440325
 21
93.52197460242411
 31
0.0
 11
123.8605864093945
 21
93.70590208895167
 31
0.0
 11
123.7321050853526
 21
93.86691443855602
 31
0.0
 11
123.6478746202504
 21
93.94339338959581
 31
0.0
 11
123.5715065314795
 21
93.99941559262138
 31
0.0
 11
123.4917719312532
 21
94.04710939102434
 31
0.0
 11
123.3910783479981
 21
94.09414470199394
 31
0.0
 11
123.3474831182445
 21
94.11045997936135
 31
0.0
 11
123.2973773245986
 21
94.12643067780601
 31
0.0
 11
123.248241921751
 21
94.13933552428047
 31
0.0
 11
123.2034066471047
 21
94.14882340264722
 31
0.0
 11
123.1189383730559
 21
94.16097959775068
 31
0.0
 11
123.0188539725626
 21
94.16600087993845
 31
0.0
  0
SPLINE
  5
2A0
330
1F
100
AcDbEntity
  8
0
  6
Continuous
 62
     7
100
AcDbSpline
210
0.0
220
0.0
230
1.0
 70
     8
 71
     3
 72
    13
 73
     9
 74
     7
 42
0.000000001
 43
0.0000000001
 44
0.00000001
 40
0.0
 40
0.0
 40
0.0
 40
0.0
 40
0.7799709400108834
 40
1.535302913523257
 40
2.245939887252418
 40
2.901186682128836
 40
3.504367318871137
 40
4.075330198321369
 40
4.075330198321369
 40
4.075330198321369
 40
4.075330198321369
 10
125.2586468198343
 20
105.5076483496425
 30
0.0
 10
124.9982268390872
 20
105.4936004635306
 30
0.0
 10
124.4856134408099
 20
105.4659484445977
 30
0.0
 10
123.7629533878959
 20
105.2451899123159
 30
0.0
 10
123.1353363435509
 20
104.9062872336776
 30
0.0
 10
122.6506203412219
 20
104.4559860997782
 30
0.0
 10
122.3223642869428
 20
103.9216758751589
 30
0.0
 10
122.2794938585749
 20
103.5284693505789
 30
0.0
 10
122.2586468198343
 20
103.3372607564612
 30
0.0
 11
125.2586468198343
 21
105.5076483496425
 31
0.0
 11
124.4821898915346
 21
105.4336936268512
 31
0.0
 11
123.7586468198343
 21
105.2168715482148
 31
0.0
 11
123.1373270418309
 21
104.8719561322441
 31
0.0
 11
122.660570608481
 21
104.4224545530519
 31
0.0
 11
122.3608701135313
 21
103.8989982510683
 31
0.0
 11
122.2586468198343
 21
103.3372607564612
 31
0.0
  0
SPLINE
  5
2A1
330
1F
100
AcDbEntity
  8
0
  6
Continuous
 62
     7
100
AcDbSpline
210
0.0
220
0.0
230
1.0
 70
     8
 71
     3
 72
     9
 73
     5
 74
     3
 42
0.000000001
 43
0.0000000001
 44
0.00000001
 40
0.0
 40
0.0
 40
0.0
 40
0.0
 40
0.0500242284590363
 40
0.1001581994420896
 40
0.1001581994420896
 40
0.1001581994420896
 40
0.1001581994420896
 10
186.158646819834
 20
89.90149847389273
 30
0.0
 10
186.1419668493858
 20
89.90170919907715
 30
0.0
 10
186.1085703169331
 20
89.902131131707
 30
0.0
 10
186.0753001364039
 20
89.90506435582493
 30
0.0
 10
186.0586468198343
 20
89.9065325848245
 30
0.0
 11
186.158646819834
 21
89.90149847389273
 31
0.0
 11
186.1086384275368
 21
89.90275710723643
 31
0.0
 11
186.0586468198343
 21
89.9065325848245
 31
0.0
  0
SPLINE
  5
2A2
330
1F
100
AcDbEntity
  8
0
  6
Continuous
 62
     7
100
AcDbSpline
210
0.0
220
0.0
230
1.0
 70
     8
 71
     3
 72
    23
 73
    19
 74
    17
 42
0.000000001
 43
0.0000000001
 44
0.00000001
 40
0.0
 40
0.0
 40
0.0
 40
0.0
 40
0.1865390087641506
 40
0.3730458452107133
 40
0.4197302563233004
 40
0.4719884580936603
 40
0.5200274612827323
 40
0.5724564889220368
 40
0.6741860589418027
 40
0.7759380080346401
 40
0.9770875448123423
 40
1.178262152794018
 40
1.229363014491035
 40
1.275246204740774
 40
1.322862312360104
 40
1.369886207165772
 40
1.453756858419527
 40
1.551932280409608
 40
1.551932280409608
 40
1.551932280409608
 40
1.551932280409608
 10
184.1589514539088
 20
101.1485483969842
 30
0.0
 10
184.1633805614747
 20
101.0863553571013
 30
0.0
 10
184.1722380273726
 20
100.9619800053802
 30
0.0
 10
184.2152720477152
 20
100.827372428546
 30
0.0
 10
184.25348668623
 20
100.7402620508942
 30
0.0
 10
184.2754317217516
 20
100.696421505375
 30
0.0
 10
184.3004681503857
 20
100.652074621611
 30
0.0
 10
184.3365257253692
 20
100.5951005569223
 30
0.0
 10
184.3876607699041
 20
100.5266152491974
 30
0.0
 10
184.4790434961562
 20
100.4271520181479
 30
0.0
 10
184.6110299575461
 20
100.3212380210837
 30
0.0
 10
184.746500833796
 20
100.2516927626657
 30
0.0
 10
184.8399465313196
 20
100.2177804377456
 30
0.0
 10
184.886015623184
 20
100.2035461422973
 30
0.0
 10
184.9313839540633
 20
100.1918088653756
 30
0.0
 10
184.9896526754361
 20
100.1797127805748
 30
0.0
 10
185.0653533718826
 20
100.1686148976153
 30
0.0
 10
185.1260604797372
 20
100.1669166858351
 30
0.0
 10
185.1587991479911
 20
100.1660008665734
 30
0.0
 11
184.1589514539088
 21
101.1485483969842
 31
0.0
 11
184.1795875750307
 21
100.9631543497196
 31
0.0
 11
184.2342837893307
 21
100.78484808292
 31
0.0
 11
184.2530803492336
 21
100.7421149153963
 31
0.0
 11
184.2764598853839
 21
100.6953782383858
 31
0.0
 11
184.3000792123626
 21
100.6535467520362
 31
0.0
 11
184.3281171768875
 21
100.609244658191
 31
0.0
 11
184.3889799516266
 21
100.5277300693366
 31
0.0
 11
184.4578257150943
 21
100.4528053062572
 31
0.0
 11
184.6147377859594
 21
100.3269492825341
 31
0.0
 11
184.7936868424268
 21
100.2350337846813
 31
0.0
 11
184.841721455777
 21
100.2175989335459
 31
0.0
 11
184.8855593594815
 21
100.2040525174514
 31
0.0
 11
184.9316605051561
 21
100.1921370600874
 31
0.0
 11
184.9776937858754
 21
100.1825358202162
 31
0.0
 11
185.0607420484077
 21
100.17081948672
 31
0.0
 11
185.1587991479911
 21
100.1660008665734
 31
0.0
  0
SPLINE
  5
2A3
330
1F
100
AcDbEntity
  8
0
  6
Continuous
 62
     7
100
AcDbSpline
210
0.0
220
0.0
230
1.0
 70
     8
 71
     3
 72
    19
 73
    15
 74
    13
 42
0.000000001
 43
0.0000000001
 44
0.00000001
 40
0.0
 40
0.0
 40
0.0
 40
0.0
 40
0.1904474363637662
 40
0.3808252602842689
 40
0.5868189009469711
 40
0.7928073627329626
 40
0.99879663803778
 40
1.204795783275775
 40
1.257042075538119
 40
1.303936901380464
 40
1.352571257161552
 40
1.400572053695427
 40
1.485916773688937
 40
1.586133470757131
 40
1.586133470757131
 40
1.586133470757131
 40
1.586133470757131
 10
185.2984396673153
 20
94.16600087093778
 30
0.0
 10
185.2348603950476
 20
94.16248810237768
 30
0.0
 10
185.1077250914234
 20
94.15546383480086
 30
0.0
 10
184.9189405184548
 20
94.09784701564976
 30
0.0
 10
184.7399833873545
 20
94.00425910559039
 30
0.0
 10
184.5801051566502
 20
93.87187768577144
 30
0.0
 10
184.4507215510887
 20
93.70981391391354
 30
0.0
 10
184.380495550773
 20
93.5705109185155
 30
0.0
 10
184.3467848441415
 20
93.47452289067498
 30
0.0
 10
184.33277768349
 20
93.42727763714089
 30
0.0
 10
184.3213676177994
 20
93.38079190307327
 30
0.0
 10
184.3098382955141
 20
93.32122955347002
 30
0.0
 10
184.2996492153455
 20
93.24388189407944
 30
0.0
 10
184.2989627214523
 20
93.181980001381
 30
0.0
 10
184.2985919721482
 20
93.14854846495084
 30
0.0
 11
185.2984396673153
 21
94.16600087093778
 31
0.0
 11
185.1088574261306
 21
94.14786801883629
 31
0.0
 11
184.9262150239994
 21
94.09415145339347
 31
0.0
 11
184.7439347809076
 21
93.99819681010129
 31
0.0
 11
184.5851879312588
 21
93.86693110759364
 31
0.0
 11
184.4567068168005
 21
93.70592121559677
 31
0.0
 11
184.3639407492599
 21
93.52199159529141
 31
0.0
 11
184.3466256043028
 21
93.47269797644469
 31
0.0
 11
184.3332945586637
 21
93.42773790575163
 31
0.0
 11
184.3217123230535
 21
93.38050282944398
 31
0.0
 11
184.3125451266188
 21
93.33338553922803
 31
0.0
 11
184.3018651466978
 21
93.24871169730892
 31
0.0
 11
184.2985919721482
 21
93.14854846495084
 31
0.0
  0
SPLINE
  5
2A4
330
1F
100
AcDbEntity
  8
0
  6
Continuous
 62
     7
100
AcDbSpline
210
0.0
220
0.0
230
1.0
 70
    24
 71
     3
 72
    15
 73
    11
 74
     9
 42
0.000000001
 43
0.0000000001
 44
0.00000001
 40
0.0
 40
0.0
 40
0.0
 40
0.0
 40
1.365502000292025
 40
2.678537161847828
 40
3.888546565349202
 40
4.949122893973907
 40
5.819493174223538
 40
6.466213419379187
 40
6.732573642736924
 40
6.998933866094717
 40
6.998933866094717
 40
6.998933866094717
 40
6.998933866094717
 10
177.1597129537396
 20
101.1660008714261
 30
0.0
 10
177.6148802871702
 20
101.1660008714261
 30
0.0
 10
178.5077260077862
 20
101.1660008714261
 30
0.0
 10
179.8039081962359
 20
101.1660008714263
 30
0.0
 10
180.9984484941299
 20
101.1660008714263
 30
0.0
 10
182.0454338315884
 20
101.1660008714263
 30
0.0
 10
182.9046561162651
 20
101.1660008714263
 30
0.0
 10
183.4991396991861
 20
101.1660008714262
 30
0.0
 10
183.8922865964766
 20
101.1660008714261
 30
0.0
 10
184.069860078715
 20
101.1660008714261
 30
0.0
 10
184.1586468198343
 20
101.1660008714261
 30
0.0
 11
177.1597129537396
 21
101.1660008714261
 31
0.0
 11
178.5252149540318
 21
101.1660008714261
 31
0.0
 11
179.8382501155878
 21
101.1660008714261
 31
0.0
 11
181.0482595190893
 21
101.1660008714261
 31
0.0
 11
182.108835847714
 21
101.1660008714261
 31
0.0
 11
182.9792061279635
 21
101.1660008714261
 31
0.0
 11
183.625926373119
 21
101.1660008714261
 31
0.0
 11
183.8922865964767
 21
101.1660008714261
 31
0.0
 11
184.1586468198343
 21
101.1660008714261
 31
0.0
  0
SPLINE
  5
2A5
330
1F
100
AcDbEntity
  8
0
  6
Continuous
 62
     7
100
AcDbSpline
210
0.0
220
0.0
230
1.0
 70
     8
 71
     3
 72
    13
 73
     9
 74
     7
 42
0.000000001
 43
0.0000000001
 44
0.00000001
 40
0.0
 40
0.0
 40
0.0
 40
0.0
 40
0.570962879450183
 40
1.174143516192449
 40
1.829390311068939
 40
2.540027284798117
 40
3.295359258310491
 40
4.075330198321378
 40
4.075330198321378
 40
4.075330198321378
 40
4.075330198321378
 10
186.0586468198343
 20
103.3372607564612
 30
0.0
 10
186.0377997810938
 20
103.5284693505788
 30
0.0
 10
185.9949293527259
 20
103.9216758751588
 30
0.0
 10
185.6666732984468
 20
104.4559860997782
 30
0.0
 10
185.1819572961178
 20
104.9062872336776
 30
0.0
 10
184.5543402517727
 20
105.2451899123158
 30
0.0
 10
183.8316801988587
 20
105.4659484445977
 30
0.0
 10
183.3190668005815
 20
105.4936004635306
 30
0.0
 10
183.0586468198343
 20
105.5076483496425
 30
0.0
 11
186.0586468198343
 21
103.3372607564612
 31
0.0
 11
185.9564235261373
 21
103.8989982510682
 31
0.0
 11
185.6567230311877
 21
104.4224545530518
 31
0.0
 11
185.1799665978377
 21
104.8719561322441
 31
0.0
 11
184.5586468198343
 21
105.2168715482148
 31
0.0
 11
183.835103748134
 21
105.4336936268511
 31
0.0
 11
183.0586468198343
 21
105.5076483496425
 31
0.0
  0
SPLINE
  5
2A6
330
1F
100
AcDbEntity
  8
0
  6
Continuous
 62
     7
100
AcDbSpline
210
0.0
220
0.0
230
1.0
 70
     8
 71
     3
 72
     9
 73
     5
 74
     3
 42
0.000000001
 43
0.0000000001
 44
0.00000001
 40
0.0
 40
0.0
 40
0.0
 40
0.0
 40
0.0501339709830108
 40
0.100158199442104
 40
0.100158199442104
 40
0.100158199442104
 40
0.100158199442104
 10
122.2586468198343
 20
89.90653258482453
 30
0.0
 10
122.2419935032647
 20
89.90506435582496
 30
0.0
 10
122.2087233227355
 20
89.90213113170705
 30
0.0
 10
122.1753267902828
 20
89.90170919907717
 30
0.0
 10
122.1586468198346
 20
89.90149847389276
 30
0.0
 11
122.2586468198343
 21
89.90653258482453
 31
0.0
 11
122.2086552121318
 21
89.90275710723645
 31
0.0
 11
122.1586468198346
 21
89.90149847389276
 31
0.0
  0
MTEXT
  5
2A7
330
1F
100
AcDbEntity
  8
Symbole_TC_020513_DIN_
 62
     7
100
AcDbMText
 10
15.44121835131688
 20
171.1824241458101
 30
0.0
 40
3.5
 41
0.0
 71
     4
 72
     1
  1
Panel\Pcut\Pout
  7
CONVERTER_11
 73
     1
 44
0.90036014405762
  0
DIMENSION
  5
2B3
330
1F
100
AcDbEntity
  8
1
100
AcDbDimension
  2
*D3
 10
29.97180382512655
 20
70.99010449329904
 30
0.0
 11
47.47180382512664
 21
74.49010449329904
 31
0.0
 70
    32
  1
<>
 71
     5
 42
-1.0
 53
0.00013888888889
  3
ME10_DIM_10
100
AcDbAlignedDimension
 13
64.9718038251267
 23
94.99010449329903
 33
0.0
 14
29.97180382512653
 24
94.99010449329904
 34
0.0
100
AcDbRotatedDimension
  0
DIMENSION
  5
2BE
330
1F
100
AcDbEntity
  8
1
100
AcDbDimension
  2
*D4
 10
31.47180382512645
 20
170.990104493299
 30
0.0
 11
47.47180382512659
 21
174.490104493299
 31
0.0
 70
    32
  1
<>
 71
     5
 42
-1.0
 53
0.00013888888889
  3
ME10_DIM_11
100
AcDbAlignedDimension
 13
63.4718038251267
 23
163.240104493299
 33
0.0
 14
31.47180382512642
 24
163.240104493299
 34
0.0
100
AcDbRotatedDimension
  0
DIMENSION
  5
2C9
330
1F
100
AcDbEntity
  8
1
100
AcDbDimension
  2
*D5
 10
79.9718038251267
 20
155.990104493299
 30
0.0
 11
76.4718038251267
 21
120.990104493299
 31
0.0
 70
    32
  1
<>
 71
     5
 42
-1.0
 53
90.0
  3
ME10_DIM_12
100
AcDbAlignedDimension
 13
70.7218038251267
 23
85.99010449329904
 33
0.0
 14
70.7218038251267
 24
155.990104493299
 34
0.0
 50
90.0
100
AcDbRotatedDimension
  0
DIMENSION
  5
2D4
330
1F
100
AcDbEntity
  8
1
100
AcDbDimension
  2
*D6
 10
19.97180382512664
 20
146.990104493299
 30
0.0
 11
16.47180382512664
 21
120.990104493299
 31
0.0
 70
    32
  1
<>
 71
     5
 42
-1.0
 53
90.0
  3
ME10_DIM_13
100
AcDbAlignedDimension
 13
29.97180382512653
 23
94.99010449329904
 33
0.0
 14
29.9718038251267
 24
146.990104493299
 34
0.0
 50
90.0
100
AcDbRotatedDimension
  0
DIMENSION
  5
2DF
330
1F
100
AcDbEntity
  8
1
100
AcDbDimension
  2
*D7
 10
277.8075302879165
 20
132.401498473889
 30
0.0
 11
247.2355885782837
 21
136.051498473889
 31
0.0
 70
    32
  1
62,5
 71
     5
 42
-1.0
 53
0.00013888888889
  3
ME10_DIM_14
100
AcDbAlignedDimension
 13
216.6636468686509
 23
106.6660008714261
 33
0.0
 14
277.8075302879165
 24
97.40149847389279
 34
0.0
100
AcDbRotatedDimension
  0
DIMENSION
  5
2EA
330
1F
100
AcDbEntity
  8
1
100
AcDbDimension
  2
*D8
 10
205.4136468686509
 20
77.66600087142612
 30
0.0
 11
201.9136468686509
 21
92.1660008714261
 31
0.0
 70
    32
  1
<>
 71
     5
 42
-1.0
 53
90.0
  3
ME10_DIM_15
100
AcDbAlignedDimension
 13
216.6636468686509
 23
106.6660008714261
 33
0.0
 14
215.4136468686509
 24
77.66600087142612
 34
0.0
 50
90.0
100
AcDbRotatedDimension
  0
DIMENSION
  5
2F7
330
1F
100
AcDbEntity
  8
1
100
AcDbDimension
  2
*D9
 10
272.9136468686507
 20
77.66600087142612
 30
0.0
 11
269.4136468686507
 21
80.66600087142612
 31
0.0
 70
    32
  1
<>
 71
     5
 42
-1.0
 53
90.0
  3
ME10_DIM_16
100
AcDbAlignedDimension
 13
259.4777618820382
 23
83.66600087142612
 33
0.0
 14
260.9136468686507
 24
77.66600087142612
 34
0.0
 50
90.0
100
AcDbRotatedDimension
  0
DIMENSION
  5
302
330
1F
100
AcDbEntity
  8
1
100
AcDbDimension
  2
*D10
 10
215.4136468686509
 20
53.66600087142612
 30
0.0
 11
238.1636468686509
 21
57.31600087142612
 31
0.0
 70
    32
  1
<>
 71
     5
 42
-1.0
 53
0.00013888888889
  3
ME10_DIM_17
100
AcDbAlignedDimension
 13
260.9136468686507
 23
77.66600087142612
 33
0.0
 14
215.4136468686509
 24
77.66600087142612
 34
0.0
100
AcDbRotatedDimension
  0
DIMENSION
  5
30D
330
1F
100
AcDbEntity
  8
1
100
AcDbDimension
  2
*D11
 10
112.9136468198343
 20
53.66600087142612
 30
0.0
 11
154.1636468198343
 21
57.31600087142612
 31
0.0
 70
    32
  1
<>
 71
     5
 42
-1.0
 53
0.00013888888889
  3
ME10_DIM_18
100
AcDbAlignedDimension
 13
195.4136468198343
 23
77.66600087142612
 33
0.0
 14
112.9136468198343
 24
77.66600087142612
 34
0.0
100
AcDbRotatedDimension
  0
DIMENSION
  5
318
330
1F
100
AcDbEntity
  8
1
100
AcDbDimension
  2
*D12
 10
116.6586468198343
 20
132.401498473889
 30
0.0
 11
154.1586468198343
 21
135.901498473889
 31
0.0
 70
    32
  1
<>
 71
     5
 42
-1.0
 53
0.00013888888889
  3
ME10_DIM_19
100
AcDbAlignedDimension
 13
191.6586468198343
 23
122.401498473889
 33
0.0
 14
116.6586468198343
 24
122.401498473889
 34
0.0
100
AcDbRotatedDimension
  0
DIMENSION
  5
323
330
1F
100
AcDbEntity
  8
1
100
AcDbDimension
  2
*D13
 10
119.1636468198343
 20
65.66600087142612
 30
0.0
 11
154.1636468198343
 21
69.16600087142612
 31
0.0
 70
    32
  1
<>
 71
     5
 42
-1.0
 53
0.00013888888889
  3
ME10_DIM_20
100
AcDbAlignedDimension
 13
189.1636468198343
 23
74.66600087142612
 33
0.0
 14
119.1636468198343
 24
74.66600087142612
 34
0.0
100
AcDbRotatedDimension
  0
DIMENSION
  5
32E
330
1F
100
AcDbEntity
  8
1
100
AcDbDimension
  2
*D14
 10
222.1636468686509
 20
65.66600087142612
 30
0.0
 11
238.1636468686509
 21
69.16600087142612
 31
0.0
 70
    32
  1
<>
 71
     5
 42
-1.0
 53
0.00013888888889
  3
ME10_DIM_21
100
AcDbAlignedDimension
 13
254.1636468686509
 23
74.66600087142612
 33
0.0
 14
222.1636468686509
 24
74.66600087142612
 34
0.0
100
AcDbRotatedDimension
  0
INSERT
  5
337
330
1F
100
AcDbEntity
  8
1
100
AcDbBlockReference
  2
*D15
 10
0.0
 20
0.0
 30
0.0
  0
ENDSEC
  0
SECTION
  2
OBJECTS
  0
DICTIONARY
  5
C
330
0
100
AcDbDictionary
281
     1
  3
ACAD_GROUP
350
D
  3
ACAD_LAYOUT
350
1A
  3
ACAD_MATERIAL
350
3B
  3
ACAD_MLEADERSTYLE
350
33A
  3
ACAD_MLINESTYLE
350
17
  3
ACAD_PLOTSETTINGS
350
19
  3
ACAD_PLOTSTYLENAME
350
E
  3
ACAD_VISUALSTYLE
350
2A
  3
AcDbVariableDictionary
350
338
  0
DICTIONARY
  5
D
102
{ACAD_REACTORS
330
C
102
}
330
C
100
AcDbDictionary
281
     1
  0
DICTIONARY
  5
1A
102
{ACAD_REACTORS
330
C
102
}
330
C
100
AcDbDictionary
281
     1
  3
Layout1
350
1E
  3
Layout2
350
26
  3
Model
350
22
  0
DICTIONARY
  5
3B
102
{ACAD_REACTORS
330
C
102
}
330
C
100
AcDbDictionary
281
     1
  3
ByBlock
350
3D
  3
ByLayer
350
3C
  3
Global
350
3E
  0
DICTIONARY
  5
33A
102
{ACAD_REACTORS
330
C
102
}
330
C
100
AcDbDictionary
281
     1
  0
DICTIONARY
  5
17
102
{ACAD_REACTORS
330
C
102
}
330
C
100
AcDbDictionary
281
     1
  3
Standard
350
18
  0
DICTIONARY
  5
19
102
{ACAD_REACTORS
330
C
102
}
330
C
100
AcDbDictionary
281
     1
  0
ACDBDICTIONARYWDFLT
  5
E
102
{ACAD_REACTORS
330
C
102
}
330
C
100
AcDbDictionary
281
     1
  3
Normal
350
F
100
AcDbDictionaryWithDefault
340
F
  0
DICTIONARY
  5
2A
102
{ACAD_REACTORS
330
C
102
}
330
C
100
AcDbDictionary
281
     1
  3
2dWireframe
350
2F
  3
3D Hidden
350
31
  3
3dWireframe
350
30
  3
Basic
350
32
  3
Brighten
350
36
  3
ColorChange
350
3A
  3
Conceptual
350
34
  3
Dim
350
35
  3
Facepattern
350
39
  3
Flat
350
2B
  3
FlatWithEdges
350
2C
  3
Gouraud
350
2D
  3
GouraudWithEdges
350
2E
  3
Linepattern
350
38
  3
Realistic
350
33
  3
Thicken
350
37
  0
DICTIONARY
  5
338
102
{ACAD_REACTORS
330
C
102
}
330
C
100
AcDbDictionary
281
     1
  3
DIMASSOC
350
33B
  3
HIDETEXT
350
33C
  0
LAYOUT
  5
1E
102
{ACAD_REACTORS
330
1A
102
}
330
1A
100
AcDbPlotSettings
  1

  2
none_device
  4

  6

 40
0.0
 41
0.0
 42
0.0
 43
0.0
 44
0.0
 45
0.0
 46
0.0
 47
0.0
 48
0.0
 49
0.0
140
0.0
141
0.0
142
1.0
143
1.0
 70
   688
 72
     0
 73
     0
 74
     5
  7

 75
    16
147
1.0
148
0.0
149
0.0
100
AcDbLayout
  1
Layout1
 70
     1
 71
     1
 10
0.0
 20
0.0
 11
12.0
 21
9.0
 12
0.0
 22
0.0
 32
0.0
 14
1.00000000000000E+20
 24
1.00000000000000E+20
 34
1.00000000000000E+20
 15
-1.00000000000000E+20
 25
-1.00000000000000E+20
 35
-1.00000000000000E+20
146
0.0
 13
0.0
 23
0.0
 33
0.0
 16
1.0
 26
0.0
 36
0.0
 17
0.0
 27
1.0
 37
0.0
 76
     0
330
1B
  0
LAYOUT
  5
26
102
{ACAD_REACTORS
330
1A
102
}
330
1A
100
AcDbPlotSettings
  1

  2
none_device
  4

  6

 40
0.0
 41
0.0
 42
0.0
 43
0.0
 44
0.0
 45
0.0
 46
0.0
 47
0.0
 48
0.0
 49
0.0
140
0.0
141
0.0
142
1.0
143
1.0
 70
   688
 72
     0
 73
     0
 74
     5
  7

 75
    16
147
1.0
148
0.0
149
0.0
100
AcDbLayout
  1
Layout2
 70
     1
 71
     2
 10
0.0
 20
0.0
 11
0.0
 21
0.0
 12
0.0
 22
0.0
 32
0.0
 14
0.0
 24
0.0
 34
0.0
 15
0.0
 25
0.0
 35
0.0
146
0.0
 13
0.0
 23
0.0
 33
0.0
 16
1.0
 26
0.0
 36
0.0
 17
0.0
 27
1.0
 37
0.0
 76
     0
330
23
  0
LAYOUT
  5
22
102
{ACAD_REACTORS
330
1A
102
}
330
1A
100
AcDbPlotSettings
  1

  2
none_device
  4

  6

 40
0.0
 41
0.0
 42
0.0
 43
0.0
 44
0.0
 45
0.0
 46
0.0
 47
0.0
 48
0.0
 49
0.0
140
0.0
141
0.0
142
1.0
143
1.0
 70
  1712
 72
     0
 73
     0
 74
     0
  7

 75
     0
147
1.0
148
0.0
149
0.0
100
AcDbLayout
  1
Model
 70
     1
 71
     0
 10
0.0
 20
0.0
 11
12.0
 21
9.0
 12
0.0
 22
0.0
 32
0.0
 14
0.0
 24
0.0
 34
0.0
 15
297.0000000000002
 25
210.0000000000001
 35
0.0
146
0.0
 13
0.0
 23
0.0
 33
0.0
 16
1.0
 26
0.0
 36
0.0
 17
0.0
 27
1.0
 37
0.0
 76
     0
330
1F
331
29
  0
MATERIAL
  5
3D
102
{ACAD_REACTORS
330
3B
102
}
102
{ACAD_XDICTIONARY
360
35F
102
}
330
3B
100
AcDbMaterial
  1
ByBlock
  0
MATERIAL
  5
3C
102
{ACAD_REACTORS
330
3B
102
}
102
{ACAD_XDICTIONARY
360
35D
102
}
330
3B
100
AcDbMaterial
  1
ByLayer
  0
MATERIAL
  5
3E
102
{ACAD_REACTORS
330
3B
102
}
102
{ACAD_XDICTIONARY
360
361
102
}
330
3B
100
AcDbMaterial
  1
Global
  0
MLINESTYLE
  5
18
102
{ACAD_REACTORS
330
17
102
}
330
17
100
AcDbMlineStyle
  2
Standard
 70
     0
  3

 62
   256
 51
90.0
 52
90.0
 71
     2
 49
0.5
 62
   256
  6
BYLAYER
 49
-0.5
 62
   256
  6
BYLAYER
  0
ACDBPLACEHOLDER
  5
F
102
{ACAD_REACTORS
330
E
102
}
330
E
  0
VISUALSTYLE
  5
2F
102
{ACAD_REACTORS
330
2A
102
}
102
{ACAD_XDICTIONARY
360
345
102
}
330
2A
100
AcDbVisualStyle
  2
2dWireframe
 70
     4
 71
     0
 72
     2
 73
     0
 90
        0
 40
-0.6
 41
-30.0
 62
     5
 63
     7
 74
     1
 91
        4
 64
     7
 65
   257
 75
     1
175
     1
 42
1.0
 92
        0
 66
   257
 43
1.0
 76
     1
 77
     6
 78
     2
 67
     7
 79
     5
170
     0
171
     0
290
     0
174
     0
 93
        1
 44
0.0
173
     0
291
     0
 45
0.0
1001
ACAD
1000
AcDbSavedByObjectVersion
1070
     0
  0
VISUALSTYLE
  5
31
102
{ACAD_REACTORS
330
2A
102
}
102
{ACAD_XDICTIONARY
360
349
102
}
330
2A
100
AcDbVisualStyle
  2
3D Hidden
 70
     6
 71
     1
 72
     2
 73
     2
 90
        0
 40
-0.6
 41
-30.0
 62
     5
 63
     7
 74
     2
 91
        2
 64
     7
 65
   257
 75
     2
175
     1
 42
40.0
 92
        0
 66
   257
 43
1.0
 76
     1
 77
     6
 78
     2
 67
     7
 79
     3
170
     0
171
     0
290
     0
174
     0
 93
        1
 44
0.0
173
     0
291
     0
 45
0.0
1001
ACAD
1000
AcDbSavedByObjectVersion
1070
     0
  0
VISUALSTYLE
  5
30
102
{ACAD_REACTORS
330
2A
102
}
102
{ACAD_XDICTIONARY
360
347
102
}
330
2A
100
AcDbVisualStyle
  2
3dWireframe
 70
     5
 71
     0
 72
     2
 73
     0
 90
        0
 40
-0.6
 41
-30.0
 62
     5
 63
     7
 74
     1
 91
        4
 64
     7
 65
   257
 75
     1
175
     1
 42
1.0
 92
        0
 66
   257
 43
1.0
 76
     1
 77
     6
 78
     2
 67
     7
 79
     5
170
     0
171
     0
290
     0
174
     0
 93
        1
 44
0.0
173
     0
291
     0
 45
0.0
1001
ACAD
1000
AcDbSavedByObjectVersion
1070
     0
  0
VISUALSTYLE
  5
32
102
{ACAD_REACTORS
330
2A
102
}
102
{ACAD_XDICTIONARY
360
34B
102
}
330
2A
100
AcDbVisualStyle
  2
Basic
 70
     7
 71
     1
 72
     0
 73
     1
 90
        0
 40
-0.6
 41
-30.0
 62
     5
 63
     7
 74
     0
 91
        4
 64
     7
 65
   257
 75
     1
175
     1
 42
1.0
 92
        8
 66
     7
 43
1.0
 76
     1
 77
     6
 78
     2
 67
     7
 79
     5
170
     0
171
     0
290
     0
174
     0
 93
        1
 44
0.0
173
     0
291
     1
 45
0.0
1001
ACAD
1000
AcDbSavedByObjectVersion
1070
     0
  0
VISUALSTYLE
  5
36
102
{ACAD_REACTORS
330
2A
102
}
102
{ACAD_XDICTIONARY
360
353
102
}
330
2A
100
AcDbVisualStyle
  2
Brighten
 70
    12
 71
     2
 72
     2
 73
     0
 90
        0
 40
-0.6
 41
-30.0
 62
     5
 63
     7
 74
     1
 91
        4
 64
     7
 65
   257
 75
     1
175
     1
 42
1.0
 92
        8
 66
     7
 43
1.0
 76
     1
 77
     6
 78
     2
 67
     7
 79
     5
170
     0
171
     0
290
     0
174
     0
 93
        1
 44
50.0
173
     0
291
     1
 45
0.0
1001
ACAD
1000
AcDbSavedByObjectVersion
1070
     0
  0
VISUALSTYLE
  5
3A
102
{ACAD_REACTORS
330
2A
102
}
102
{ACAD_XDICTIONARY
360
35B
102
}
330
2A
100
AcDbVisualStyle
  2
ColorChange
 70
    16
 71
     2
 72
     2
 73
     3
 90
        0
 40
-0.6
 41
-30.0
 62
     5
 63
     8
 74
     1
 91
        4
 64
     7
 65
   257
 75
     1
175
     1
 42
1.0
 92
        8
 66
     8
 43
1.0
 76
     1
 77
     6
 78
     2
 67
     7
 79
     5
170
     0
171
     0
290
     0
174
     0
 93
        1
 44
0.0
173
     0
291
     1
 45
0.0
1001
ACAD
1000
AcDbSavedByObjectVersion
1070
     0
  0
VISUALSTYLE
  5
34
102
{ACAD_REACTORS
330
2A
102
}
102
{ACAD_XDICTIONARY
360
34F
102
}
330
2A
100
AcDbVisualStyle
  2
Conceptual
 70
     9
 71
     3
 72
     2
 73
     0
 90
        0
 40
-0.6
 41
-30.0
 62
     5
 63
     7
 74
     2
 91
        2
 64
     7
 65
   257
 75
     1
175
     1
 42
40.0
 92
        8
 66
     7
 43
1.0
 76
     1
 77
     6
 78
     2
 67
     7
 79
     3
170
     0
171
     0
290
     0
174
     0
 93
        1
 44
0.0
173
     0
291
     0
 45
0.0
1001
ACAD
1000
AcDbSavedByObjectVersion
1070
     0
  0
VISUALSTYLE
  5
35
102
{ACAD_REACTORS
330
2A
102
}
102
{ACAD_XDICTIONARY
360
351
102
}
330
2A
100
AcDbVisualStyle
  2
Dim
 70
    11
 71
     2
 72
     2
 73
     0
 90
        0
 40
-0.6
 41
-30.0
 62
     5
 63
     7
 74
     1
 91
        4
 64
     7
 65
   257
 75
     1
175
     1
 42
1.0
 92
        8
 66
     7
 43
1.0
 76
     1
 77
     6
 78
     2
 67
     7
 79
     5
170
     0
171
     0
290
     0
174
     0
 93
        1
 44
-50.0
173
     0
291
     1
 45
0.0
1001
ACAD
1000
AcDbSavedByObjectVersion
1070
     0
  0
VISUALSTYLE
  5
39
102
{ACAD_REACTORS
330
2A
102
}
102
{ACAD_XDICTIONARY
360
359
102
}
330
2A
100
AcDbVisualStyle
  2
Facepattern
 70
    15
 71
     2
 72
     2
 73
     0
 90
        0
 40
-0.6
 41
-30.0
 62
     5
 63
     7
 74
     1
 91
        4
 64
     7
 65
   257
 75
     1
175
     1
 42
1.0
 92
        8
 66
     7
 43
1.0
 76
     1
 77
     6
 78
     2
 67
     7
 79
     5
170
     0
171
     0
290
     0
174
     0
 93
        1
 44
0.0
173
     0
291
     1
 45
0.0
1001
ACAD
1000
AcDbSavedByObjectVersion
1070
     0
  0
VISUALSTYLE
  5
2B
102
{ACAD_REACTORS
330
2A
102
}
102
{ACAD_XDICTIONARY
360
33D
102
}
330
2A
100
AcDbVisualStyle
  2
Flat
 70
     0
 71
     2
 72
     1
 73
     1
 90
        2
 40
-0.6
 41
30.0
 62
     5
 63
     7
 74
     0
 91
        4
 64
     7
 65
   257
 75
     1
175
     1
 42
1.0
 92
        8
 66
     7
 43
1.0
 76
     1
 77
     6
 78
     2
 67
     7
 79
     5
170
     0
171
     0
290
     0
174
     0
 93
       13
 44
0.0
173
     0
291
     1
 45
0.0
1001
ACAD
1000
AcDbSavedByObjectVersion
1070
     0
  0
VISUALSTYLE
  5
2C
102
{ACAD_REACTORS
330
2A
102
}
102
{ACAD_XDICTIONARY
360
33F
102
}
330
2A
100
AcDbVisualStyle
  2
FlatWithEdges
 70
     1
 71
     2
 72
     1
 73
     1
 90
        2
 40
-0.6
 41
30.0
 62
     5
 63
     7
 74
     1
 91
        4
 64
     7
 65
   257
 75
     1
175
     1
 42
1.0
 92
        0
 66
   257
 43
1.0
 76
     1
 77
     6
 78
     2
 67
     7
 79
     5
170
     0
171
     0
290
     0
174
     0
 93
       13
 44
0.0
173
     0
291
     1
 45
0.0
1001
ACAD
1000
AcDbSavedByObjectVersion
1070
     0
  0
VISUALSTYLE
  5
2D
102
{ACAD_REACTORS
330
2A
102
}
102
{ACAD_XDICTIONARY
360
341
102
}
330
2A
100
AcDbVisualStyle
  2
Gouraud
 70
     2
 71
     2
 72
     2
 73
     1
 90
        2
 40
-0.6
 41
30.0
 62
     5
 63
     7
 74
     0
 91
        4
 64
     7
 65
   257
 75
     1
175
     1
 42
1.0
 92
        0
 66
     7
 43
1.0
 76
     1
 77
     6
 78
     2
 67
     7
 79
     5
170
     0
171
     0
290
     0
174
     0
 93
       13
 44
0.0
173
     0
291
     1
 45
0.0
1001
ACAD
1000
AcDbSavedByObjectVersion
1070
     0
  0
VISUALSTYLE
  5
2E
102
{ACAD_REACTORS
330
2A
102
}
102
{ACAD_XDICTIONARY
360
343
102
}
330
2A
100
AcDbVisualStyle
  2
GouraudWithEdges
 70
     3
 71
     2
 72
     2
 73
     1
 90
        2
 40
-0.6
 41
30.0
 62
     5
 63
     7
 74
     1
 91
        4
 64
     7
 65
   257
 75
     1
175
     1
 42
1.0
 92
        0
 66
   257
 43
1.0
 76
     1
 77
     6
 78
     2
 67
     7
 79
     5
170
     0
171
     0
290
     0
174
     0
 93
       13
 44
0.0
173
     0
291
     1
 45
0.0
1001
ACAD
1000
AcDbSavedByObjectVersion
1070
     0
  0
VISUALSTYLE
  5
38
102
{ACAD_REACTORS
330
2A
102
}
102
{ACAD_XDICTIONARY
360
357
102
}
330
2A
100
AcDbVisualStyle
  2
Linepattern
 70
    14
 71
     2
 72
     2
 73
     0
 90
        0
 40
-0.6
 41
-30.0
 62
     5
 63
     7
 74
     1
 91
        4
 64
     7
 65
   257
 75
     7
175
     7
 42
1.0
 92
        8
 66
     7
 43
1.0
 76
     1
 77
     6
 78
     2
 67
     7
 79
     5
170
     0
171
     0
290
     0
174
     0
 93
        1
 44
0.0
173
     0
291
     1
 45
0.0
1001
ACAD
1000
AcDbSavedByObjectVersion
1070
     0
  0
VISUALSTYLE
  5
33
102
{ACAD_REACTORS
330
2A
102
}
102
{ACAD_XDICTIONARY
360
34D
102
}
330
2A
100
AcDbVisualStyle
  2
Realistic
 70
     8
 71
     2
 72
     2
 73
     0
 90
        0
 40
-0.6
 41
-30.0
 62
     5
 63
     7
 74
     1
 91
        0
 64
     7
 65
   257
 75
     1
175
     1
 42
1.0
 92
        8
 66
     8
 43
1.0
 76
     1
 77
     6
 78
     2
 67
     7
 79
     5
170
     0
171
     0
290
     0
174
     0
 93
       13
 44
0.0
173
     0
291
     0
 45
0.0
1001
ACAD
1000
AcDbSavedByObjectVersion
1070
     0
  0
VISUALSTYLE
  5
37
102
{ACAD_REACTORS
330
2A
102
}
102
{ACAD_XDICTIONARY
360
355
102
}
330
2A
100
AcDbVisualStyle
  2
Thicken
 70
    13
 71
     2
 72
     2
 73
     0
 90
        0
 40
-0.6
 41
-30.0
 62
     5
 63
     7
 74
     1
 91
        4
 64
     7
 65
   257
 75
     1
175
     1
 42
1.0
 92
       12
 66
     7
 43
1.0
 76
     1
 77
     6
 78
     2
 67
     7
 79
     5
170
     0
171
     0
290
     0
174
     0
 93
        1
 44
0.0
173
     0
291
     1
 45
0.0
1001
ACAD
1000
AcDbSavedByObjectVersion
1070
     0
  0
DICTIONARYVAR
  5
33B
102
{ACAD_REACTORS
330
338
102
}
330
338
100
DictionaryVariables
280
     0
  1
2
  0
DICTIONARYVAR
  5
33C
102
{ACAD_REACTORS
330
338
102
}
330
338
100
DictionaryVariables
280
     0
  1
1
  0
DICTIONARY
  5
35F
330
3D
100
AcDbDictionary
280
     1
281
     1
  3
ACAD_XREC_ROUNDTRIP
360
360
  0
DICTIONARY
  5
35D
330
3C
100
AcDbDictionary
280
     1
281
     1
  3
ACAD_XREC_ROUNDTRIP
360
35E
  0
DICTIONARY
  5
361
330
3E
100
AcDbDictionary
280
     1
281
     1
  3
ACAD_XREC_ROUNDTRIP
360
362
  0
DICTIONARY
  5
345
330
2F
100
AcDbDictionary
280
     1
281
     1
  3
ACAD_XREC_ROUNDTRIP
360
346
  0
DICTIONARY
  5
349
330
31
100
AcDbDictionary
280
     1
281
     1
  3
ACAD_XREC_ROUNDTRIP
360
34A
  0
DICTIONARY
  5
347
330
30
100
AcDbDictionary
280
     1
281
     1
  3
ACAD_XREC_ROUNDTRIP
360
348
  0
DICTIONARY
  5
34B
330
32
100
AcDbDictionary
280
     1
281
     1
  3
ACAD_XREC_ROUNDTRIP
360
34C
  0
DICTIONARY
  5
353
330
36
100
AcDbDictionary
280
     1
281
     1
  3
ACAD_XREC_ROUNDTRIP
360
354
  0
DICTIONARY
  5
35B
330
3A
100
AcDbDictionary
280
     1
281
     1
  3
ACAD_XREC_ROUNDTRIP
360
35C
  0
DICTIONARY
  5
34F
330
34
100
AcDbDictionary
280
     1
281
     1
  3
ACAD_XREC_ROUNDTRIP
360
350
  0
DICTIONARY
  5
351
330
35
100
AcDbDictionary
280
     1
281
     1
  3
ACAD_XREC_ROUNDTRIP
360
352
  0
DICTIONARY
  5
359
330
39
100
AcDbDictionary
280
     1
281
     1
  3
ACAD_XREC_ROUNDTRIP
360
35A
  0
DICTIONARY
  5
33D
330
2B
100
AcDbDictionary
280
     1
281
     1
  3
ACAD_XREC_ROUNDTRIP
360
33E
  0
DICTIONARY
  5
33F
330
2C
100
AcDbDictionary
280
     1
281
     1
  3
ACAD_XREC_ROUNDTRIP
360
340
  0
DICTIONARY
  5
341
330
2D
100
AcDbDictionary
280
     1
281
     1
  3
ACAD_XREC_ROUNDTRIP
360
342
  0
DICTIONARY
  5
343
330
2E
100
AcDbDictionary
280
     1
281
     1
  3
ACAD_XREC_ROUNDTRIP
360
344
  0
DICTIONARY
  5
357
330
38
100
AcDbDictionary
280
     1
281
     1
  3
ACAD_XREC_ROUNDTRIP
360
358
  0
DICTIONARY
  5
34D
330
33
100
AcDbDictionary
280
     1
281
     1
  3
ACAD_XREC_ROUNDTRIP
360
34E
  0
DICTIONARY
  5
355
330
37
100
AcDbDictionary
280
     1
281
     1
  3
ACAD_XREC_ROUNDTRIP
360
356
  0
XRECORD
  5
360
102
{ACAD_REACTORS
330
35F
102
}
330
35F
100
AcDbXrecord
280
     1
102
MATERIAL
148
0.0
149
0.0
149
0.0
 93
        0
 94
      127
282
     0
 72
     1
 77
     1
171
     1
175
     1
179
     1
273
     0
  0
XRECORD
  5
35E
102
{ACAD_REACTORS
330
35D
102
}
330
35D
100
AcDbXrecord
280
     1
102
MATERIAL
148
0.0
149
0.0
149
0.0
 93
        0
 94
      127
282
     0
 72
     1
 77
     1
171
     1
175
     1
179
     1
273
     0
  0
XRECORD
  5
362
102
{ACAD_REACTORS
330
361
102
}
330
361
100
AcDbXrecord
280
     1
102
MATERIAL
148
0.0
149
0.0
149
0.0
 93
        0
 94
      127
282
     0
 72
     1
 77
     1
171
     1
175
     1
179
     1
273
     0
  0
XRECORD
  5
346
102
{ACAD_REACTORS
330
345
102
}
330
345
100
AcDbXrecord
280
     1
102
RTVSPropertyOp0
 70
     1
102
RTVSPropertyOp1
 70
     1
102
RTVSPropertyOp2
 70
     1
102
RTVSPropertyOp3
 70
     1
102
RTVSPropertyOp4
 70
     1
102
RTVSPropertyOp5
 70
     1
102
RTVSPropertyOp6
 70
     1
102
RTVSPropertyOp7
 70
     1
102
RTVSPropertyOp8
 70
     1
102
RTVSPropertyOp9
 70
     1
102
RTVSPropertyOp10
 70
     1
102
RTVSPropertyOp11
 70
     1
102
RTVSPropertyOp12
 70
     1
102
RTVSPropertyOp13
 70
     1
102
RTVSPropertyOp14
 70
     1
102
RTVSPropertyOp15
 70
     1
102
RTVSPropertyOp16
 70
     1
102
RTVSPropertyOp17
 70
     1
102
RTVSPropertyOp18
 70
     1
102
RTVSPropertyOp19
 70
     1
102
RTVSPropertyOp20
 70
     1
102
RTVSPropertyOp21
 70
     1
102
RTVSPropertyOp22
 70
     1
102
RTVSPropertyOp23
 70
     1
102
RTVSPropertyOp24
 70
     1
102
RTVSPropertyOp25
 70
     1
102
RTVSPropertyOp26
 70
     1
102
RTVSPropertyOp27
 70
     1
102
RTVSPropertyOp28
 70
     1
102
RTVSPropertyOp29
 70
     1
102
RTVSPropertyOp30
 70
     1
102
RTVSPropertyOp31
 70
     1
102
RTVSPropertyOp32
 70
     1
  0
XRECORD
  5
34A
102
{ACAD_REACTORS
330
349
102
}
330
349
100
AcDbXrecord
280
     1
102
RTVSPropertyOp0
 70
     1
102
RTVSPropertyOp1
 70
     1
102
RTVSPropertyOp2
 70
     1
102
RTVSPropertyOp3
 70
     1
102
RTVSPropertyOp4
 70
     1
102
RTVSPropertyOp5
 70
     1
102
RTVSPropertyOp6
 70
     1
102
RTVSPropertyOp7
 70
     1
102
RTVSPropertyOp8
 70
     1
102
RTVSPropertyOp9
 70
     1
102
RTVSPropertyOp10
 70
     1
102
RTVSPropertyOp11
 70
     1
102
RTVSPropertyOp12
 70
     1
102
RTVSPropertyOp13
 70
     1
102
RTVSPropertyOp14
 70
     1
102
RTVSPropertyOp15
 70
     1
102
RTVSPropertyOp16
 70
     1
102
RTVSPropertyOp17
 70
     1
102
RTVSPropertyOp18
 70
     1
102
RTVSPropertyOp19
 70
     1
102
RTVSPropertyOp20
 70
     1
102
RTVSPropertyOp21
 70
     1
102
RTVSPropertyOp22
 70
     1
102
RTVSPropertyOp23
 70
     1
102
RTVSPropertyOp24
 70
     1
102
RTVSPropertyOp25
 70
     1
102
RTVSPropertyOp26
 70
     1
102
RTVSPropertyOp27
 70
     1
102
RTVSPropertyOp28
 70
     1
102
RTVSPropertyOp29
 70
     1
102
RTVSPropertyOp30
 70
     1
102
RTVSPropertyOp31
 70
     1
102
RTVSPropertyOp32
 70
     1
  0
XRECORD
  5
348
102
{ACAD_REACTORS
330
347
102
}
330
347
100
AcDbXrecord
280
     1
102
RTVSPropertyOp0
 70
     1
102
RTVSPropertyOp1
 70
     1
102
RTVSPropertyOp2
 70
     1
102
RTVSPropertyOp3
 70
     1
102
RTVSPropertyOp4
 70
     1
102
RTVSPropertyOp5
 70
     1
102
RTVSPropertyOp6
 70
     1
102
RTVSPropertyOp7
 70
     1
102
RTVSPropertyOp8
 70
     1
102
RTVSPropertyOp9
 70
     1
102
RTVSPropertyOp10
 70
     1
102
RTVSPropertyOp11
 70
     1
102
RTVSPropertyOp12
 70
     1
102
RTVSPropertyOp13
 70
     1
102
RTVSPropertyOp14
 70
     1
102
RTVSPropertyOp15
 70
     1
102
RTVSPropertyOp16
 70
     1
102
RTVSPropertyOp17
 70
     1
102
RTVSPropertyOp18
 70
     1
102
RTVSPropertyOp19
 70
     1
102
RTVSPropertyOp20
 70
     1
102
RTVSPropertyOp21
 70
     1
102
RTVSPropertyOp22
 70
     1
102
RTVSPropertyOp23
 70
     1
102
RTVSPropertyOp24
 70
     1
102
RTVSPropertyOp25
 70
     1
102
RTVSPropertyOp26
 70
     1
102
RTVSPropertyOp27
 70
     1
102
RTVSPropertyOp28
 70
     1
102
RTVSPropertyOp29
 70
     1
102
RTVSPropertyOp30
 70
     1
102
RTVSPropertyOp31
 70
     1
102
RTVSPropertyOp32
 70
     1
  0
XRECORD
  5
34C
102
{ACAD_REACTORS
330
34B
102
}
330
34B
100
AcDbXrecord
280
     1
102
RTVSPropertyOp0
 70
     1
102
RTVSPropertyOp1
 70
     1
102
RTVSPropertyOp2
 70
     1
102
RTVSPropertyOp3
 70
     1
102
RTVSPropertyOp4
 70
     1
102
RTVSPropertyOp5
 70
     1
102
RTVSPropertyOp6
 70
     1
102
RTVSPropertyOp7
 70
     1
102
RTVSPropertyOp8
 70
     1
102
RTVSPropertyOp9
 70
     1
102
RTVSPropertyOp10
 70
     1
102
RTVSPropertyOp11
 70
     1
102
RTVSPropertyOp12
 70
     1
102
RTVSPropertyOp13
 70
     1
102
RTVSPropertyOp14
 70
     1
102
RTVSPropertyOp15
 70
     1
102
RTVSPropertyOp16
 70
     1
102
RTVSPropertyOp17
 70
     1
102
RTVSPropertyOp18
 70
     1
102
RTVSPropertyOp19
 70
     1
102
RTVSPropertyOp20
 70
     1
102
RTVSPropertyOp21
 70
     1
102
RTVSPropertyOp22
 70
     1
102
RTVSPropertyOp23
 70
     1
102
RTVSPropertyOp24
 70
     1
102
RTVSPropertyOp25
 70
     1
102
RTVSPropertyOp26
 70
     1
102
RTVSPropertyOp27
 70
     1
102
RTVSPropertyOp28
 70
     1
102
RTVSPropertyOp29
 70
     1
102
RTVSPropertyOp30
 70
     1
102
RTVSPropertyOp31
 70
     1
102
RTVSPropertyOp32
 70
     1
  0
XRECORD
  5
354
102
{ACAD_REACTORS
330
353
102
}
330
353
100
AcDbXrecord
280
     1
102
RTVSPropertyOp0
 70
     1
102
RTVSPropertyOp1
 70
     1
102
RTVSPropertyOp2
 70
     1
102
RTVSPropertyOp3
 70
     1
102
RTVSPropertyOp4
 70
     1
102
RTVSPropertyOp5
 70
     1
102
RTVSPropertyOp6
 70
     1
102
RTVSPropertyOp7
 70
     1
102
RTVSPropertyOp8
 70
     1
102
RTVSPropertyOp9
 70
     1
102
RTVSPropertyOp10
 70
     1
102
RTVSPropertyOp11
 70
     1
102
RTVSPropertyOp12
 70
     1
102
RTVSPropertyOp13
 70
     1
102
RTVSPropertyOp14
 70
     1
102
RTVSPropertyOp15
 70
     1
102
RTVSPropertyOp16
 70
     1
102
RTVSPropertyOp17
 70
     1
102
RTVSPropertyOp18
 70
     1
102
RTVSPropertyOp19
 70
     1
102
RTVSPropertyOp20
 70
     1
102
RTVSPropertyOp21
 70
     1
102
RTVSPropertyOp22
 70
     1
102
RTVSPropertyOp23
 70
     1
102
RTVSPropertyOp24
 70
     1
102
RTVSPropertyOp25
 70
     1
102
RTVSPropertyOp26
 70
     1
102
RTVSPropertyOp27
 70
     1
102
RTVSPropertyOp28
 70
     1
102
RTVSPropertyOp29
 70
     1
102
RTVSPropertyOp30
 70
     1
102
RTVSPropertyOp31
 70
     1
102
RTVSPropertyOp32
 70
     1
  0
XRECORD
  5
35C
102
{ACAD_REACTORS
330
35B
102
}
330
35B
100
AcDbXrecord
280
     1
102
RTVSPropertyOp0
 70
     1
102
RTVSPropertyOp1
 70
     1
102
RTVSPropertyOp2
 70
     1
102
RTVSPropertyOp3
 70
     1
102
RTVSPropertyOp4
 70
     1
102
RTVSPropertyOp5
 70
     1
102
RTVSPropertyOp6
 70
     1
102
RTVSPropertyOp7
 70
     1
102
RTVSPropertyOp8
 70
     1
102
RTVSPropertyOp9
 70
     1
102
RTVSPropertyOp10
 70
     1
102
RTVSPropertyOp11
 70
     1
102
RTVSPropertyOp12
 70
     1
102
RTVSPropertyOp13
 70
     1
102
RTVSPropertyOp14
 70
     1
102
RTVSPropertyOp15
 70
     1
102
RTVSPropertyOp16
 70
     1
102
RTVSPropertyOp17
 70
     1
102
RTVSPropertyOp18
 70
     1
102
RTVSPropertyOp19
 70
     1
102
RTVSPropertyOp20
 70
     1
102
RTVSPropertyOp21
 70
     1
102
RTVSPropertyOp22
 70
     1
102
RTVSPropertyOp23
 70
     1
102
RTVSPropertyOp24
 70
     1
102
RTVSPropertyOp25
 70
     1
102
RTVSPropertyOp26
 70
     1
102
RTVSPropertyOp27
 70
     1
102
RTVSPropertyOp28
 70
     1
102
RTVSPropertyOp29
 70
     1
102
RTVSPropertyOp30
 70
     1
102
RTVSPropertyOp31
 70
     1
102
RTVSPropertyOp32
 70
     1
  0
XRECORD
  5
350
102
{ACAD_REACTORS
330
34F
102
}
330
34F
100
AcDbXrecord
280
     1
102
RTVSPropertyOp0
 70
     1
102
RTVSPropertyOp1
 70
     1
102
RTVSPropertyOp2
 70
     1
102
RTVSPropertyOp3
 70
     1
102
RTVSPropertyOp4
 70
     1
102
RTVSPropertyOp5
 70
     1
102
RTVSPropertyOp6
 70
     1
102
RTVSPropertyOp7
 70
     1
102
RTVSPropertyOp8
 70
     1
102
RTVSPropertyOp9
 70
     1
102
RTVSPropertyOp10
 70
     1
102
RTVSPropertyOp11
 70
     1
102
RTVSPropertyOp12
 70
     1
102
RTVSPropertyOp13
 70
     1
102
RTVSPropertyOp14
 70
     1
102
RTVSPropertyOp15
 70
     1
102
RTVSPropertyOp16
 70
     1
102
RTVSPropertyOp17
 70
     1
102
RTVSPropertyOp18
 70
     1
102
RTVSPropertyOp19
 70
     1
102
RTVSPropertyOp20
 70
     1
102
RTVSPropertyOp21
 70
     1
102
RTVSPropertyOp22
 70
     1
102
RTVSPropertyOp23
 70
     1
102
RTVSPropertyOp24
 70
     1
102
RTVSPropertyOp25
 70
     1
102
RTVSPropertyOp26
 70
     1
102
RTVSPropertyOp27
 70
     1
102
RTVSPropertyOp28
 70
     1
102
RTVSPropertyOp29
 70
     1
102
RTVSPropertyOp30
 70
     1
102
RTVSPropertyOp31
 70
     1
102
RTVSPropertyOp32
 70
     1
  0
XRECORD
  5
352
102
{ACAD_REACTORS
330
351
102
}
330
351
100
AcDbXrecord
280
     1
102
RTVSPropertyOp0
 70
     1
102
RTVSPropertyOp1
 70
     1
102
RTVSPropertyOp2
 70
     1
102
RTVSPropertyOp3
 70
     1
102
RTVSPropertyOp4
 70
     1
102
RTVSPropertyOp5
 70
     1
102
RTVSPropertyOp6
 70
     1
102
RTVSPropertyOp7
 70
     1
102
RTVSPropertyOp8
 70
     1
102
RTVSPropertyOp9
 70
     1
102
RTVSPropertyOp10
 70
     1
102
RTVSPropertyOp11
 70
     1
102
RTVSPropertyOp12
 70
     1
102
RTVSPropertyOp13
 70
     1
102
RTVSPropertyOp14
 70
     1
102
RTVSPropertyOp15
 70
     1
102
RTVSPropertyOp16
 70
     1
102
RTVSPropertyOp17
 70
     1
102
RTVSPropertyOp18
 70
     1
102
RTVSPropertyOp19
 70
     1
102
RTVSPropertyOp20
 70
     1
102
RTVSPropertyOp21
 70
     1
102
RTVSPropertyOp22
 70
     1
102
RTVSPropertyOp23
 70
     1
102
RTVSPropertyOp24
 70
     1
102
RTVSPropertyOp25
 70
     1
102
RTVSPropertyOp26
 70
     1
102
RTVSPropertyOp27
 70
     1
102
RTVSPropertyOp28
 70
     1
102
RTVSPropertyOp29
 70
     1
102
RTVSPropertyOp30
 70
     1
102
RTVSPropertyOp31
 70
     1
102
RTVSPropertyOp32
 70
     1
  0
XRECORD
  5
35A
102
{ACAD_REACTORS
330
359
102
}
330
359
100
AcDbXrecord
280
     1
102
RTVSPropertyOp0
 70
     1
102
RTVSPropertyOp1
 70
     1
102
RTVSPropertyOp2
 70
     1
102
RTVSPropertyOp3
 70
     1
102
RTVSPropertyOp4
 70
     1
102
RTVSPropertyOp5
 70
     1
102
RTVSPropertyOp6
 70
     1
102
RTVSPropertyOp7
 70
     1
102
RTVSPropertyOp8
 70
     1
102
RTVSPropertyOp9
 70
     1
102
RTVSPropertyOp10
 70
     1
102
RTVSPropertyOp11
 70
     1
102
RTVSPropertyOp12
 70
     1
102
RTVSPropertyOp13
 70
     1
102
RTVSPropertyOp14
 70
     1
102
RTVSPropertyOp15
 70
     1
102
RTVSPropertyOp16
 70
     1
102
RTVSPropertyOp17
 70
     1
102
RTVSPropertyOp18
 70
     1
102
RTVSPropertyOp19
 70
     1
102
RTVSPropertyOp20
 70
     1
102
RTVSPropertyOp21
 70
     1
102
RTVSPropertyOp22
 70
     1
102
RTVSPropertyOp23
 70
     1
102
RTVSPropertyOp24
 70
     1
102
RTVSPropertyOp25
 70
     1
102
RTVSPropertyOp26
 70
     1
102
RTVSPropertyOp27
 70
     1
102
RTVSPropertyOp28
 70
     1
102
RTVSPropertyOp29
 70
     1
102
RTVSPropertyOp30
 70
     1
102
RTVSPropertyOp31
 70
     1
102
RTVSPropertyOp32
 70
     1
  0
XRECORD
  5
33E
102
{ACAD_REACTORS
330
33D
102
}
330
33D
100
AcDbXrecord
280
     1
102
RTVSPropertyOp0
 70
     1
102
RTVSPropertyOp1
 70
     1
102
RTVSPropertyOp2
 70
     1
102
RTVSPropertyOp3
 70
     1
102
RTVSPropertyOp4
 70
     1
102
RTVSPropertyOp5
 70
     1
102
RTVSPropertyOp6
 70
     1
102
RTVSPropertyOp7
 70
     1
102
RTVSPropertyOp8
 70
     1
102
RTVSPropertyOp9
 70
     1
102
RTVSPropertyOp10
 70
     1
102
RTVSPropertyOp11
 70
     1
102
RTVSPropertyOp12
 70
     1
102
RTVSPropertyOp13
 70
     1
102
RTVSPropertyOp14
 70
     1
102
RTVSPropertyOp15
 70
     1
102
RTVSPropertyOp16
 70
     1
102
RTVSPropertyOp17
 70
     1
102
RTVSPropertyOp18
 70
     1
102
RTVSPropertyOp19
 70
     1
102
RTVSPropertyOp20
 70
     1
102
RTVSPropertyOp21
 70
     1
102
RTVSPropertyOp22
 70
     1
102
RTVSPropertyOp23
 70
     1
102
RTVSPropertyOp24
 70
     1
102
RTVSPropertyOp25
 70
     1
102
RTVSPropertyOp26
 70
     1
102
RTVSPropertyOp27
 70
     1
102
RTVSPropertyOp28
 70
     1
102
RTVSPropertyOp29
 70
     1
102
RTVSPropertyOp30
 70
     1
102
RTVSPropertyOp31
 70
     1
102
RTVSPropertyOp32
 70
     1
  0
XRECORD
  5
340
102
{ACAD_REACTORS
330
33F
102
}
330
33F
100
AcDbXrecord
280
     1
102
RTVSPropertyOp0
 70
     1
102
RTVSPropertyOp1
 70
     1
102
RTVSPropertyOp2
 70
     1
102
RTVSPropertyOp3
 70
     1
102
RTVSPropertyOp4
 70
     1
102
RTVSPropertyOp5
 70
     1
102
RTVSPropertyOp6
 70
     1
102
RTVSPropertyOp7
 70
     1
102
RTVSPropertyOp8
 70
     1
102
RTVSPropertyOp9
 70
     1
102
RTVSPropertyOp10
 70
     1
102
RTVSPropertyOp11
 70
     1
102
RTVSPropertyOp12
 70
     1
102
RTVSPropertyOp13
 70
     1
102
RTVSPropertyOp14
 70
     1
102
RTVSPropertyOp15
 70
     1
102
RTVSPropertyOp16
 70
     1
102
RTVSPropertyOp17
 70
     1
102
RTVSPropertyOp18
 70
     1
102
RTVSPropertyOp19
 70
     1
102
RTVSPropertyOp20
 70
     1
102
RTVSPropertyOp21
 70
     1
102
RTVSPropertyOp22
 70
     1
102
RTVSPropertyOp23
 70
     1
102
RTVSPropertyOp24
 70
     1
102
RTVSPropertyOp25
 70
     1
102
RTVSPropertyOp26
 70
     1
102
RTVSPropertyOp27
 70
     1
102
RTVSPropertyOp28
 70
     1
102
RTVSPropertyOp29
 70
     1
102
RTVSPropertyOp30
 70
     1
102
RTVSPropertyOp31
 70
     1
102
RTVSPropertyOp32
 70
     1
  0
XRECORD
  5
342
102
{ACAD_REACTORS
330
341
102
}
330
341
100
AcDbXrecord
280
     1
102
RTVSPropertyOp0
 70
     1
102
RTVSPropertyOp1
 70
     1
102
RTVSPropertyOp2
 70
     1
102
RTVSPropertyOp3
 70
     1
102
RTVSPropertyOp4
 70
     1
102
RTVSPropertyOp5
 70
     1
102
RTVSPropertyOp6
 70
     1
102
RTVSPropertyOp7
 70
     1
102
RTVSPropertyOp8
 70
     1
102
RTVSPropertyOp9
 70
     1
102
RTVSPropertyOp10
 70
     1
102
RTVSPropertyOp11
 70
     1
102
RTVSPropertyOp12
 70
     1
102
RTVSPropertyOp13
 70
     1
102
RTVSPropertyOp14
 70
     1
102
RTVSPropertyOp15
 70
     1
102
RTVSPropertyOp16
 70
     1
102
RTVSPropertyOp17
 70
     1
102
RTVSPropertyOp18
 70
     1
102
RTVSPropertyOp19
 70
     1
102
RTVSPropertyOp20
 70
     1
102
RTVSPropertyOp21
 70
     1
102
RTVSPropertyOp22
 70
     1
102
RTVSPropertyOp23
 70
     1
102
RTVSPropertyOp24
 70
     1
102
RTVSPropertyOp25
 70
     1
102
RTVSPropertyOp26
 70
     1
102
RTVSPropertyOp27
 70
     1
102
RTVSPropertyOp28
 70
     1
102
RTVSPropertyOp29
 70
     1
102
RTVSPropertyOp30
 70
     1
102
RTVSPropertyOp31
 70
     1
102
RTVSPropertyOp32
 70
     1
  0
XRECORD
  5
344
102
{ACAD_REACTORS
330
343
102
}
330
343
100
AcDbXrecord
280
     1
102
RTVSPropertyOp0
 70
     1
102
RTVSPropertyOp1
 70
     1
102
RTVSPropertyOp2
 70
     1
102
RTVSPropertyOp3
 70
     1
102
RTVSPropertyOp4
 70
     1
102
RTVSPropertyOp5
 70
     1
102
RTVSPropertyOp6
 70
     1
102
RTVSPropertyOp7
 70
     1
102
RTVSPropertyOp8
 70
     1
102
RTVSPropertyOp9
 70
     1
102
RTVSPropertyOp10
 70
     1
102
RTVSPropertyOp11
 70
     1
102
RTVSPropertyOp12
 70
     1
102
RTVSPropertyOp13
 70
     1
102
RTVSPropertyOp14
 70
     1
102
RTVSPropertyOp15
 70
     1
102
RTVSPropertyOp16
 70
     1
102
RTVSPropertyOp17
 70
     1
102
RTVSPropertyOp18
 70
     1
102
RTVSPropertyOp19
 70
     1
102
RTVSPropertyOp20
 70
     1
102
RTVSPropertyOp21
 70
     1
102
RTVSPropertyOp22
 70
     1
102
RTVSPropertyOp23
 70
     1
102
RTVSPropertyOp24
 70
     1
102
RTVSPropertyOp25
 70
     1
102
RTVSPropertyOp26
 70
     1
102
RTVSPropertyOp27
 70
     1
102
RTVSPropertyOp28
 70
     1
102
RTVSPropertyOp29
 70
     1
102
RTVSPropertyOp30
 70
     1
102
RTVSPropertyOp31
 70
     1
102
RTVSPropertyOp32
 70
     1
  0
XRECORD
  5
358
102
{ACAD_REACTORS
330
357
102
}
330
357
100
AcDbXrecord
280
     1
102
RTVSPropertyOp0
 70
     1
102
RTVSPropertyOp1
 70
     1
102
RTVSPropertyOp2
 70
     1
102
RTVSPropertyOp3
 70
     1
102
RTVSPropertyOp4
 70
     1
102
RTVSPropertyOp5
 70
     1
102
RTVSPropertyOp6
 70
     1
102
RTVSPropertyOp7
 70
     1
102
RTVSPropertyOp8
 70
     1
102
RTVSPropertyOp9
 70
     1
102
RTVSPropertyOp10
 70
     1
102
RTVSPropertyOp11
 70
     1
102
RTVSPropertyOp12
 70
     1
102
RTVSPropertyOp13
 70
     1
102
RTVSPropertyOp14
 70
     1
102
RTVSPropertyOp15
 70
     1
102
RTVSPropertyOp16
 70
     1
102
RTVSPropertyOp17
 70
     1
102
RTVSPropertyOp18
 70
     1
102
RTVSPropertyOp19
 70
     1
102
RTVSPropertyOp20
 70
     1
102
RTVSPropertyOp21
 70
     1
102
RTVSPropertyOp22
 70
     1
102
RTVSPropertyOp23
 70
     1
102
RTVSPropertyOp24
 70
     1
102
RTVSPropertyOp25
 70
     1
102
RTVSPropertyOp26
 70
     1
102
RTVSPropertyOp27
 70
     1
102
RTVSPropertyOp28
 70
     1
102
RTVSPropertyOp29
 70
     1
102
RTVSPropertyOp30
 70
     1
102
RTVSPropertyOp31
 70
     1
102
RTVSPropertyOp32
 70
     1
  0
XRECORD
  5
34E
102
{ACAD_REACTORS
330
34D
102
}
330
34D
100
AcDbXrecord
280
     1
102
RTVSPropertyOp0
 70
     1
102
RTVSPropertyOp1
 70
     1
102
RTVSPropertyOp2
 70
     1
102
RTVSPropertyOp3
 70
     1
102
RTVSPropertyOp4
 70
     1
102
RTVSPropertyOp5
 70
     1
102
RTVSPropertyOp6
 70
     1
102
RTVSPropertyOp7
 70
     1
102
RTVSPropertyOp8
 70
     1
102
RTVSPropertyOp9
 70
     1
102
RTVSPropertyOp10
 70
     1
102
RTVSPropertyOp11
 70
     1
102
RTVSPropertyOp12
 70
     1
102
RTVSPropertyOp13
 70
     1
102
RTVSPropertyOp14
 70
     1
102
RTVSPropertyOp15
 70
     1
102
RTVSPropertyOp16
 70
     1
102
RTVSPropertyOp17
 70
     1
102
RTVSPropertyOp18
 70
     1
102
RTVSPropertyOp19
 70
     1
102
RTVSPropertyOp20
 70
     1
102
RTVSPropertyOp21
 70
     1
102
RTVSPropertyOp22
 70
     1
102
RTVSPropertyOp23
 70
     1
102
RTVSPropertyOp24
 70
     1
102
RTVSPropertyOp25
 70
     1
102
RTVSPropertyOp26
 70
     1
102
RTVSPropertyOp27
 70
     1
102
RTVSPropertyOp28
 70
     1
102
RTVSPropertyOp29
 70
     1
102
RTVSPropertyOp30
 70
     1
102
RTVSPropertyOp31
 70
     1
102
RTVSPropertyOp32
 70
     1
  0
XRECORD
  5
356
102
{ACAD_REACTORS
330
355
102
}
330
355
100
AcDbXrecord
280
     1
102
RTVSPropertyOp0
 70
     1
102
RTVSPropertyOp1
 70
     1
102
RTVSPropertyOp2
 70
     1
102
RTVSPropertyOp3
 70
     1
102
RTVSPropertyOp4
 70
     1
102
RTVSPropertyOp5
 70
     1
102
RTVSPropertyOp6
 70
     1
102
RTVSPropertyOp7
 70
     1
102
RTVSPropertyOp8
 70
     1
102
RTVSPropertyOp9
 70
     1
102
RTVSPropertyOp10
 70
     1
102
RTVSPropertyOp11
 70
     1
102
RTVSPropertyOp12
 70
     1
102
RTVSPropertyOp13
 70
     1
102
RTVSPropertyOp14
 70
     1
102
RTVSPropertyOp15
 70
     1
102
RTVSPropertyOp16
 70
     1
102
RTVSPropertyOp17
 70
     1
102
RTVSPropertyOp18
 70
     1
102
RTVSPropertyOp19
 70
     1
102
RTVSPropertyOp20
 70
     1
102
RTVSPropertyOp21
 70
     1
102
RTVSPropertyOp22
 70
     1
102
RTVSPropertyOp23
 70
     1
102
RTVSPropertyOp24
 70
     1
102
RTVSPropertyOp25
 70
     1
102
RTVSPropertyOp26
 70
     1
102
RTVSPropertyOp27
 70
     1
102
RTVSPropertyOp28
 70
     1
102
RTVSPropertyOp29
 70
     1
102
RTVSPropertyOp30
 70
     1
102
RTVSPropertyOp31
 70
     1
102
RTVSPropertyOp32
 70
     1
  0
ENDSEC
  0
EOF
